Welcome Guest ( Log In | Register )

> Releases Upload / Добавление релизов

Добавить релиз тут / Click here to add release
Рекомендованные обменники / Recommended file shares

 
Reply to this topicStart new topic
> Garden Of Sinners - The Promethean Act (2019), Black/Death Metal
post Sep 13 2019, 12:12:52
Post #1

Правь статус, ####!111
**************
Group: Металариец
Posts: 18,575
Releases: 12575
From: Г.Харьков
On Forums: 7 years 4 months
Thanks: 213011 time(s)
Unknown


(IMG:https://metalarea.org/images/audiocovers/2019_Sep/acov_tid327352_thumb.jpg)

*Artist: Garden Of Sinners
*Album: The Promethean Act
*Year: 2019
*Genre: Black/Death Metal
*Country: Germany (IMG:https://metalarea.org/forum/style_images/flags/Germany.png)
*Format: mp3@CBR320kbps
*Size: 92MB

Tracklist:
1. Intro 01:30
2. Invocation 05:19
3. Obsidian Mountains 05:05
4. March Through Ashes 04:48
5. House of God 04:43
6. Sulphur 05:02
7. The Promethean Act 05:06
8. Mantra 06:38
******************************
Total playing time: 38:11




Extended info
A.S. Bass
See also: ex-Koroded, ex-The Ebenezer Scrooge Complex
M.F. Drums
See also: ex-Träumen von Aurora
F.B. Guitars
J.R. Guitars, Vocals


Technical info
(IMG:https://metalarea.org/images/spectrogram/2019_Sep/6e2c3f599ec1ab745bc18ba27727b059.png)
Input File: 03 - Obsidian Mountains.mp3
Channels : 2
Sample Rate : 44100
Precision : 16-bit
Duration : 00:05:05.73 = 13482737 samples = 22929.8 CDDA sectors
File Size : 12.8M
Bit Rate : 334k
Sample Encoding: MPEG audio (layer I, II or III)
Comments :
Title=Obsidian Mountains
Artist=Garden Of Sinners
Album=The Promethean Act
Tracknumber=3
Year=2019
Genre=Black Metal
Discnumber=1



Register


Go to the top of the page
  Insert nick Quick quote
+Quote Post

Reply to this topicStart new topic
1 User(s) are reading this topic (1 Guests and 0 Anonymous Users)
0 Members:

 



- Lo-Fi Version Support form
Copyrights and abuse reports form
Time is now: 21st September 2019 - 05:49:45