Welcome Guest ( Log In | Register )

> Releases Upload / Добавление релизов

Добавить релиз тут / Click here to add release
Рекомендованные обменники / Recommended file shares

 
Reply to this topicStart new topic
> Eye Rake - Eye Rake (2019), Crossover/Thrash Metal
post Sep 13 2019, 12:36:39
Post #1

Правь статус, ####!111
**************
Group: Металариец
Posts: 18,575
Releases: 12575
From: Г.Харьков
On Forums: 7 years 4 months
Thanks: 213041 time(s)
Unknown


(IMG:https://metalarea.org/images/audiocovers/2019_Sep/acov_tid327353_thumb.jpg)

*Artist: Eye Rake
*Album: Eye Rake
*Year: 2019
*Genre: Crossover/Thrash Metal
*Country: United States (IMG:https://metalarea.org/forum/style_images/flags/United%20States.png)
*Format: mp3@CBR320kbps
*Size: 75MB

Tracklist:
1. Intro
2. March of the GOP
3. Greek to Me
4. World War IV
5. Satanic Panic
6. Booze Your Delusion
7. Welcome to Phoenix
8. Death Machine
9. D.N.R.
10. Rope a Dope
11. Prison Cells (but Who's Buying...)
12. The Wild and the Reckless
******************************
Total playing time: 32:41




Extended info
Johnny Bass
Jay Drums
Jason Guitars
See also: Cut Throat Freak Show, Swapmeat
Ben Vocals


Technical info
(IMG:https://metalarea.org/images/spectrogram/2019_Sep/efd269bc99f6b6e03196aa615596080e.png)
Input File: 5 - Satanic Panic.mp3
Channels : 2
Sample Rate : 44100
Precision : 16-bit
Duration : 00:02:44.24 = 7242984 samples = 12318 CDDA sectors
File Size : 6.63M
Bit Rate : 323k
Sample Encoding: MPEG audio (layer I, II or III)
Comments :
Title=Satanic Panic
Artist=Eye Rake
Album=Eye Rake
Tracknumber=5
Year=2019
Genre=Alternative/Indie Rock/Metal
Discnumber=1



Register


Go to the top of the page
  Insert nick Quick quote
+Quote Post

Reply to this topicStart new topic
1 User(s) are reading this topic (1 Guests and 0 Anonymous Users)
0 Members:

 



- Lo-Fi Version Support form
Copyrights and abuse reports form
Time is now: 21st September 2019 - 05:58:01