Welcome Guest ( Log In | Register )

> Releases Upload / Добавление релизов

Добавить релиз тут / Click here to add release
Рекомендованные обменники / Recommended file shares

 
Reply to this topicStart new topic
> Ange De La Mort - Unscrupulous Misattributions (2019), Black Metal
post Sep 13 2019, 13:00:34
Post #1

Serial Uploader
Group Icon
Group: V.I.P
Posts: 36,147
Releases: 34346
From: Lithuania
On Forums: 11 years 3 months
Thanks: 398362 time(s)
Lithuania


(IMG:https://metalarea.org/images/audiocovers/2019_Sep/acov_tid327354_thumb.jpg)

*Artist: Ange De La Mort
*Album: Unscrupulous Misattributions
*Year: 2019
*Genre: Black Metal
*Country: United States (IMG:https://metalarea.org/forum/style_images/flags/United%20States.png)
*Format: mp3@CBR320kbps
*Size: 78MB

Tracklist:
01. Renditions in a Master's Hand
02. Ascertained Overabundance
03. Abstraction to Geometric Depression
04. Surrealists Enigmatik Recognition
05. Hallucinogenic Psychotherapy
06. Amassing Lithographic Supernatural Signals
07. Counterfeit Deliberate Confirmation as Critique
******************************
Total playing time: 33:55


(IMG:https://metalarea.org/images/youtube.png)

Technical info
(IMG:https://metalarea.org/images/spectrogram/2019_Sep/fb1504af355cc074d0ff585f6b5f6bcd.png)
Input File: 2 - Ascertained Overabundance.mp3
Channels : 2
Sample Rate : 44100
Precision : 16-bit
Duration : 00:03:34.84 = 9474532 samples = 16113.1 CDDA sectors
File Size : 8.66M
Bit Rate : 323k
Sample Encoding: MPEG audio (layer I, II or III)
Comments :
Title=Ascertained Overabundance
Artist=Ange de la Mort
Album=Unscrupulous Misattributions
Tracknumber=2
Year=2019
Genre=Metal
Discnumber=1



Register


Go to the top of the page
  Insert nick Quick quote
+Quote Post

Reply to this topicStart new topic
1 User(s) are reading this topic (1 Guests and 0 Anonymous Users)
0 Members:

 



- Lo-Fi Version Support form
Copyrights and abuse reports form
Time is now: 21st September 2019 - 06:06:21