Welcome Guest ( Log In | Register )

> Releases Upload / Добавление релизов

Добавить релиз тут / Click here to add release
Рекомендованные обменники / Recommended file shares

> Insepsy - Reek Of Gore (2019), Goregrind
post Sep 13 2019, 13:21:47
Post #1

Serial Uploader
Group Icon
Group: V.I.P
Posts: 36,147
Releases: 34346
From: Lithuania
On Forums: 11 years 3 months
Thanks: 398368 time(s)
Lithuania


(IMG:https://metalarea.org/images/audiocovers/2019_Sep/acov_tid327355_thumb.jpg)

*Artist: Insepsy
*Album: Reek Of Gore
*Year: 2019
*Genre: Goregrind
*Country: Brazil (IMG:https://metalarea.org/forum/style_images/flags/Brazil.png)
*Format: mp3@CBR320kbps
*Size: 66MB

Tracklist:
01. Linfococconoblastos Urinarys 02:00
02. Coaguloma Uterine 01:27
03. Fecal Bloodsoaked 01:39
04. Cannibal Forensick Hallucinations 02:06
05. Horrendous Mastigation 01:38
06. Human, Pus And Gore 01:15
07. All Guts No Glommy 01:42
08. Barbarian Muccosanguinolencer 01:49
09. Hellblazers Goregrinder 01:28
10. Poppy Seed Cum 01:17
11. Goregrind Smash The Fas-Cist 01:42
12. Mucus Eloquentia 02:21
13. Haomeopathic Cerebral Worm 01:45
14. Copse Colectior Virulency 01:02
15. Perpectual Infections 01:04
16. Cake Melanoma 01:50
******************************
Total playing time: 26:05

(IMG:https://metalarea.org/images/myspace.png)



Technical info
(IMG:https://metalarea.org/images/spectrogram/2019_Sep/4f2773fa93d4ab3c7c53322ab08e258c.png)
Input File: Insepsy - Reek of Gore - 02. Coaguloma Uterine.mp3
Channels : 2
Sample Rate : 44100
Precision : 16-bit
Duration : 00:01:27.57 = 3861837 samples = 6567.75 CDDA sectors
File Size : 3.88M
Bit Rate : 354k
Sample Encoding: MPEG audio (layer I, II or III)
Comments :
Title=Coaguloma Uterine
Artist=Insepsy
Album=Reek of Gore
Tracknumber=02
Year=2019
Genre=Metal



Register


Go to the top of the page
  Insert nick Quick quote
+Quote Post
 
Start new topic
Replies (1 - 1)
post Sep 14 2019, 08:48:14
Post #2

Четыре Литра
****
Group: Металариец
Posts: 333
Releases: 0
From: APATIN, SERBIA, АПАТИН, СЕРБИЯ
On Forums: 11 years 10 months
Thanks: 451 time(s)



Flac

Register


Thanks:
(1) Olethros,
Go to the top of the page
  Insert nick Quick quote
+Quote Post

Reply to this topicStart new topic
1 User(s) are reading this topic (1 Guests and 0 Anonymous Users)
0 Members:

 



- Lo-Fi Version Support form
Copyrights and abuse reports form
Time is now: 21st September 2019 - 06:14:18