Welcome Guest ( Log In | Register )

> Releases Upload / Добавление релизов

Добавить релиз тут / Click here to add release
Рекомендованные обменники / Recommended file shares

> Hyperomm - Transcendence (2019), Melodic Death Metal
post Sep 13 2019, 13:33:10
Post #1

Правь статус, ####!111
**************
Group: Металариец
Posts: 18,597
Releases: 12590
From: Г.Харьков
On Forums: 7 years 4 months
Thanks: 213280 time(s)
Unknown


(IMG:https://metalarea.org/images/audiocovers/2019_Sep/acov_tid327356_thumb.jpg)

*Artist: Hyperomm
*Album: Transcendence
*Year: 2019
*Genre: Melodic Death Metal
*Country: Russian Federation (IMG:https://metalarea.org/forum/style_images/flags/Russian%20Federation.png)
*Format: mp3@CBR320kbps
*Size: 87MB

Tracklist:
1. Portal 01:53
2. Weighing of the Heart 04:30
3. Metempsychosis 03:20
4. Patala 03:53
5. Eternal Feast 04:04
6. Charnel Wraith 03:49
7. Illusory State 05:01
8. Vortex of Hell 05:19
9. Transcendence 01:30 instrumental
10. The Story 04:15
******************************
Total playing time: 37:34




Extended info
Anton Trubin Everything


Technical info
(IMG:https://metalarea.org/images/spectrogram/2019_Sep/3c3919ccc9466d89d5e6b55668a6f5d6.png)
Input File: 03 - Metempsychosis.mp3
Channels : 2
Sample Rate : 44100
Precision : 16-bit
Duration : 00:03:20.94 = 8861630 samples = 15070.8 CDDA sectors
File Size : 8.12M
Bit Rate : 323k
Sample Encoding: MPEG audio (layer I, II or III)
Comments :
Title=Metempsychosis
Artist=Hyperomm
Album=Transcendence
Tracknumber=3
Year=2019-09-12
Genre=Metal
Discnumber=1



Register


Go to the top of the page
  Insert nick Quick quote
+Quote Post
 
Start new topic
Replies (1 - 1)
post Yesterday, 14:44:10
Post #2

Все люди - черви.
**********
Group: Металариец
Posts: 1,054
Releases: 118
From: Пхёнъян, Северная Корея
On Forums: 6 years 8 months
Thanks: 3750 time(s)
North Korea


Прогресс музыкант ощутим. Очень интересный альбом получился, местами даже прогрессивно, но при этом и мелодично, а также задорно. Инструментал достаточно разнообразный получился, каждый трек, как отдельная история, непохожий на предыдущий. В общем, очень круто! Зачет! (IMG:style_emoticons/default/9.gif)


Thanks:
Go to the top of the page
  Insert nick Quick quote
+Quote Post

Reply to this topicStart new topic
1 User(s) are reading this topic (1 Guests and 0 Anonymous Users)
0 Members:

 



- Lo-Fi Version Support form
Copyrights and abuse reports form
Time is now: 21st September 2019 - 23:11:51