Welcome Guest ( Log In | Register )

> Releases Upload / Добавление релизов

Добавить релиз тут / Click here to add release
Рекомендованные обменники / Recommended file shares

 
Reply to this topicStart new topic
> Scarlet Moon & The Labyrinth - Gemini (2019), Black Metal/Gothic Rock
post Sep 13 2019, 13:38:10
Post #1

Serial Uploader
Group Icon
Group: V.I.P
Posts: 36,147
Releases: 34346
From: Lithuania
On Forums: 11 years 3 months
Thanks: 398397 time(s)
Lithuania


(IMG:https://metalarea.org/images/audiocovers/2019_Sep/acov_tid327357_thumb.jpg)

*Artist: Scarlet Moon & The Labyrinth
*Album: Gemini
*Year: 2019
*Genre: Black Metal/Gothic Rock
*Country: Brazil (IMG:https://metalarea.org/forum/style_images/flags/Brazil.png)
*Format: mp3@CBR320kbps
*Size: 91MB

Tracklist:
01. Gemini 06:41
02. A Shadowy Lesson 04:16
03. Devouring Revelation 06:06
04. Crystal Tear 05:14
05. Vengeance in Gloom 03:48
06. Reliquary 07:37
07. Babalon & the Moon of Rebirth 05:53
******************************
Total playing time: 39:35




Technical info
(IMG:https://metalarea.org/images/spectrogram/2019_Sep/2ef93c05ad22d51cf68c7dae7219052f.png)
Input File: 02. A Shadowy Lesson.mp3
Channels : 2
Sample Rate : 44100
Precision : 16-bit
Duration : 00:04:16.88 = 11328364 samples = 19265.9 CDDA sectors
File Size : 10.4M
Bit Rate : 323k
Sample Encoding: MPEG audio (layer I, II or III)
Comments :
Title=A Shadowy Lesson
Artist=Scarlet Moon & The Labyrinth
Album=Gemini
Tracknumber=2/7
Year=2019
Genre=17
Discnumber=1/1



Register


Go to the top of the page
  Insert nick Quick quote
+Quote Post

Reply to this topicStart new topic
1 User(s) are reading this topic (1 Guests and 0 Anonymous Users)
0 Members:

 



- Lo-Fi Version Support form
Copyrights and abuse reports form
Time is now: 21st September 2019 - 06:30:25