Welcome Guest ( Log In | Register )

> Releases Upload / Добавление релизов

Добавить релиз тут / Click here to add release
Рекомендованные обменники / Recommended file shares

> Illvilja - I Stormens Öga (2019), Atmospheric Black Metal
post Sep 13 2019, 13:56:23
Post #1

Правь статус, ####!111
**************
Group: Металариец
Posts: 18,575
Releases: 12575
From: Г.Харьков
On Forums: 7 years 4 months
Thanks: 213003 time(s)
Unknown


(IMG:https://metalarea.org/images/audiocovers/2019_Sep/acov_tid327358_thumb.jpg)

*Artist: Illvilja
*Album: I Stormens Öga
*Year: 2019
*Genre: Atmospheric Black Metal
*Country: Sweden (IMG:https://metalarea.org/forum/style_images/flags/Sweden.png)
*Format: mp3@CBR320kbps
*Size: 80MB

Tracklist:
1. I stormens öga 05:12
2. Född ur ett mörker 05:42
3. Vägen hem 05:24
4. I ett dödens gränsland 05:40
5. Förhäxad 07:24
6. I nattens svärta 05:18
******************************
Total playing time: 34:40



Extended info
Illvilja Everything


Technical info
(IMG:https://metalarea.org/images/spectrogram/2019_Sep/86f15b746014708a5f62a9bd1af8bff0.png)
Input File: 03 - Vägen Hem.mp3
Channels : 2
Sample Rate : 44100
Precision : 16-bit
Duration : 00:05:24.09 = 14292501 samples = 24307 CDDA sectors
File Size : 13.1M
Bit Rate : 323k
Sample Encoding: MPEG audio (layer I, II or III)
Comments :
Title=Vägen Hem
Artist=Illvilja
Album=I Stormens Öga
Tracknumber=3
Year=2019-09-11
Genre=Rock; Metal
Discnumber=1



Register


Go to the top of the page
  Insert nick Quick quote
+Quote Post
 
Start new topic
Replies (1 - 2)
post Sep 14 2019, 09:27:47
Post #2

I hate you all
**************
Group: Металариец
Posts: 2,060
Releases: 75
From: Ukraine
On Forums: 12 years 4 months
Thanks: 5169 time(s)
Ukraine




Thanks:
Go to the top of the page
  Insert nick Quick quote
+Quote Post
post Sep 14 2019, 12:41:15
Post #3

Мегаманьяк
***********
Group: Металариец
Posts: 1,539
Releases: 0
On Forums: 10 years 6 months
Thanks: 573 time(s)
Antarctica


Какой же смешной клоун на обложке (IMG:style_emoticons/default/15.gif) Думал, музыка тоже стёбная будет. Но единственный стёб здесь - кристально чистое звучание, даже тэхнодэт снимает шляпу. Это, конечно, никуда не годится. Мелодии более-менее, но очевидно не для коллекции.
Go to the top of the page
  Insert nick Quick quote
+Quote Post

Reply to this topicStart new topic
1 User(s) are reading this topic (1 Guests and 0 Anonymous Users)
0 Members:

 



- Lo-Fi Version Support form
Copyrights and abuse reports form
Time is now: 21st September 2019 - 05:35:59