Welcome Guest ( Log In | Register )

> Pathogenic - Pathogenic (2019), Extreme Progressive Metal
post Sep 13 2019, 14:08:35
Post #1

Serial Uploader
Group Icon
Group: V.I.P
Posts: 37,124
Releases: 35308
From: Lithuania
On Forums: 11 years 11 months
Thanks: 419197 time(s)
Lithuania


(IMG:https://metalarea.org/images/audiocovers/2019_Sep/acov_tid327359_thumb.jpg)

*Artist: Pathogenic
*Album: Pathogenic
*Year: 2019
*Genre: Extreme Progressive Metal
*Country: United States (IMG:https://metalarea.org/forum/style_images/flags/United%20States.png)
*Format: mp3@CBR320kbps
*Size: 122MB

Tracklist:
01. Testimony
02. We Weep Only For Ourselves
03. Ghost
04. The Stories We Choose To Tell
05. The Danger In Well Crafted Words
06. Suicide Itch
07. King Of Ignorance
08. The Lie Of Humankind
09. In Terram
******************************
Total playing time: 53:02



Technical info
(IMG:https://metalarea.org/images/spectrogram/2019_Sep/a798e5bc04b4450b139074beb3563072.png)
Input File: 02 - We Weep Only for Ourselves.mp3
Channels : 2
Sample Rate : 44100
Precision : 16-bit
Duration : 00:05:27.05 = 14422817 samples = 24528.6 CDDA sectors
File Size : 13.1M
Bit Rate : 320k
Sample Encoding: MPEG audio (layer I, II or III)
Comments :
Title=We Weep Only for Ourselves
Artist=Pathogenic
Album=Pathogenic
Tracknumber=2
Year=2019
Genre=Metal
Discnumber=1



Register


Go to the top of the page
  Insert nick Quick quote
+Quote Post
 
Start new topic
Replies (1 - 3)
post Sep 14 2019, 08:24:13
Post #2

hearer & reader
**************
Group: Металариец
Posts: 8,695
Releases: 140
From: Moscow
On Forums: 12 years 8 months
Thanks: 8716 time(s)
Russian Federation




Thanks:
Go to the top of the page
  Insert nick Quick quote
+Quote Post
post Oct 8 2019, 16:49:24
Post #3

Шесть Литров
******
Group: Металариец
Posts: 695
Releases: 10
On Forums: 11 years 4 months
Thanks: 162 time(s)
Germany


please, re-upload.
Go to the top of the page
  Insert nick Quick quote
+Quote Post
post Oct 8 2019, 16:56:45
Post #4

Group Icon
Group: S-moderation team
Posts: 15,553
Releases: 1440
From: Zagreb
On Forums: 9 years 3 months
Thanks: 69112 time(s)
Croatia


Register


Thanks:
Go to the top of the page
  Insert nick Quick quote
+Quote Post

Reply to this topicStart new topic
1 User(s) are reading this topic (1 Guests and 0 Anonymous Users)
0 Members:

 



- Lo-Fi Version Support form
Copyrights and abuse reports form
Time is now: 29th May 2020 - 01:52:55