Welcome Guest ( Log In | Register )

> Releases Upload / Добавление релизов

Добавить релиз тут / Click here to add release
Рекомендованные обменники / Recommended file shares

 
Reply to this topicStart new topic
> Sepulchral Frost - Frozen Entrapment [ep] (2019), Doom/Death Metal
post Sep 13 2019, 14:15:47
Post #1

Правь статус, ####!111
**************
Group: Металариец
Posts: 18,575
Releases: 12575
From: Г.Харьков
On Forums: 7 years 4 months
Thanks: 213054 time(s)
Unknown


(IMG:https://metalarea.org/images/audiocovers/2019_Sep/acov_tid327360_thumb.jpg)

*Artist: Sepulchral Frost
*Album: Frozen Entrapment [ep]
*Year: 2019
*Genre: Doom/Death Metal
*Country: Sweden (IMG:https://metalarea.org/forum/style_images/flags/Sweden.png)
*Format: mp3@CBR320kbps
*Size: 57MB

Tracklist:
1. Seekers Unrest (Hunger) 03:54
2. Crown of Emptiness 06:20
3. Cult of the Bloody Tongue 03:41
4. Frozen Entrapment 04:34
5. Funeral Bell 04:09
6. Desecrate the Corpse of Hank 01:55
******************************
Total playing time: 24:33




Extended info
Jimmy Bass, Vocals
Arnold Vestin Drums
Jesus Jansson Guitars
Raoul Kronqvist- Guitars


Technical info
(IMG:https://metalarea.org/images/spectrogram/2019_Sep/e18f27a658993991b453962a8ff4997d.png)
Input File: 04 - Frozen Entrapment.mp3
Channels : 2
Sample Rate : 44100
Precision : 16-bit
Duration : 00:04:35.01 = 12127765 samples = 20625.5 CDDA sectors
File Size : 11.1M
Bit Rate : 323k
Sample Encoding: MPEG audio (layer I, II or III)
Comments :
Title=Frozen Entrapment
Artist=Sepulchral Frost
Album=Frozen Entrapment
Tracknumber=4
Year=2019-09-02
Genre=Rock
Discnumber=1



Register


Go to the top of the page
  Insert nick Quick quote
+Quote Post

Reply to this topicStart new topic
1 User(s) are reading this topic (1 Guests and 0 Anonymous Users)
0 Members:

 



- Lo-Fi Version Support form
Copyrights and abuse reports form
Time is now: 21st September 2019 - 06:17:31