Welcome Guest ( Log In | Register )

> Releases Upload / Добавление релизов

Добавить релиз тут / Click here to add release
Рекомендованные обменники / Recommended file shares

 
Reply to this topicStart new topic
> Mask Of Sanity - World Full Of Sin (2019), Sludge/Doom Metal
post Sep 13 2019, 14:16:41
Post #1

Serial Uploader
Group Icon
Group: V.I.P
Posts: 36,277
Releases: 34471
From: Lithuania
On Forums: 11 years 4 months
Thanks: 400871 time(s)
Lithuania


(IMG:https://metalarea.org/images/audiocovers/2019_Sep/acov_tid327361_thumb.jpg)

*Artist: Mask Of Sanity
*Album: World Full Of Sin
*Year: 2019
*Genre: Sludge/Doom Metal
*Country: United States (IMG:https://metalarea.org/forum/style_images/flags/United%20States.png)
*Format: mp3@CBR320kbps
*Size: 106MB

Tracklist:
01. Sterilize 08:07
02. Running Out of Time 03:29
03. Thrash Sabbath 05:37
04. Child of Man 05:50
05. Vaginal Sludge 07:30
06. Alive? 05:25
07. M.C.I.S. 05:21
08. Oblivion 05:16
******************************
Total playing time: 46:35




Technical info
(IMG:https://metalarea.org/images/spectrogram/2019_Sep/0999a357b3092408f6c9917fccf86c3a.png)
Input File: 02 - Running Out of Time.mp3
Channels : 2
Sample Rate : 44100
Precision : 16-bit
Duration : 00:03:29.75 = 9250019 samples = 15731.3 CDDA sectors
File Size : 8.39M
Bit Rate : 320k
Sample Encoding: MPEG audio (layer I, II or III)
Comments :
Title=Running Out of Time
Artist=Mask of Sanity
Album=World Full of Sin
Tracknumber=2
Year=2019
Genre=Metal
Discnumber=1



Register


Go to the top of the page
  Insert nick Quick quote
+Quote Post

Reply to this topicStart new topic
1 User(s) are reading this topic (1 Guests and 0 Anonymous Users)
0 Members:

 



- Lo-Fi Version Support form
Copyrights and abuse reports form
Time is now: 15th October 2019 - 02:21:44