Welcome Guest ( Log In | Register )

> Releases Upload / Добавление релизов

Добавить релиз тут / Click here to add release
Рекомендованные обменники / Recommended file shares

 
Reply to this topicStart new topic
> Naughty Nation - Cosmic Equity (2019), Instrumental/Progressive/Technical Death Metal
post Sep 13 2019, 14:26:11
Post #1

Serial Uploader
Group Icon
Group: V.I.P
Posts: 36,147
Releases: 34346
From: Lithuania
On Forums: 11 years 3 months
Thanks: 398336 time(s)
Lithuania


(IMG:https://metalarea.org/images/audiocovers/2019_Sep/acov_tid327362_thumb.jpg)

*Artist: Naughty Nation
*Album: Cosmic Equity
*Year: 2019
*Genre: Instrumental/Progressive/Technical Death Metal
*Country: Switzerland (IMG:https://metalarea.org/forum/style_images/flags/Switzerland.png)
*Format: mp3@CBR320kbps
*Size: 132MB

Tracklist:
01. Sara's Dreamworld 06:55
02. Der Untergang 12:59
03. Inner Demons 03:19
04. The Reign of Amun Re 07:23
05. Cosmic Equity 04:55
06. La Nibi Ummanate 05:02
07. Vega 09:57
08. The Cycle of Existence 07:11
******************************
Total playing time: 57:41



(IMG:https://metalarea.org/images/youtube.png)

Technical info
(IMG:https://metalarea.org/images/spectrogram/2019_Sep/f1bb0d634657d3e04f62fb6e9a73af7f.png)
Input File: 02 - Der Untergang.mp3
Channels : 2
Sample Rate : 44100
Precision : 16-bit
Duration : 00:13:00.06 = 34400734 samples = 58504.6 CDDA sectors
File Size : 31.2M
Bit Rate : 320k
Sample Encoding: MPEG audio (layer I, II or III)
Comments :
Title=Der Untergang
Artist=Naughty Nation
Album=Cosmic Equity
Tracknumber=2
Year=2019
Genre=Metal
Discnumber=1



Register


Go to the top of the page
  Insert nick Quick quote
+Quote Post

Reply to this topicStart new topic
1 User(s) are reading this topic (1 Guests and 0 Anonymous Users)
0 Members:

 



- Lo-Fi Version Support form
Copyrights and abuse reports form
Time is now: 21st September 2019 - 05:35:37