Welcome Guest ( Log In | Register )

> Releases Upload / Добавление релизов

Добавить релиз тут / Click here to add release
Рекомендованные обменники / Recommended file shares

> Sidus Atrum - Cold Silence (2019), Blackened Death/Doom Metal
post Sep 13 2019, 14:38:57
Post #1

Serial Uploader
Group Icon
Group: V.I.P
Posts: 36,154
Releases: 34353
From: Lithuania
On Forums: 11 years 3 months
Thanks: 398495 time(s)
Lithuania


(IMG:https://metalarea.org/images/audiocovers/2019_Sep/acov_tid327363_thumb.jpg)

*Artist: Sidus Atrum
*Album: Cold Silence
*Year: 2019
*Genre: Blackened Death/Doom Metal
*Country: Ukraine (IMG:https://metalarea.org/forum/style_images/flags/Ukraine.png)
*Format: mp3@CBR320kbps
*Size: 77MB

Tracklist:
01. Lost 03:21
02. Into the Depth 06:34
03. Bloody Eyes 07:15
04. Cold Silence 08:10
05. Integrity 06:38
******************************
Total playing time: 31:58



(IMG:https://metalarea.org/images/youtube.png)

Technical info
(IMG:https://metalarea.org/images/spectrogram/2019_Sep/a0e52f99e21b7a68131fc7fabbb05824.png)
Input File: 02. Into the Depth.mp3
Channels : 2
Sample Rate : 44100
Precision : 16-bit
Duration : 00:06:34.29 = 17388233 samples = 29571.8 CDDA sectors
File Size : 16.6M
Bit Rate : 336k
Sample Encoding: MPEG audio (layer I, II or III)
Comments :
Title=Into the Depth
Artist=Sidus Atrum
Album=Cold Silence
Tracknumber=2/5
Year=2019



Register


Go to the top of the page
  Insert nick Quick quote
+Quote Post
 
Start new topic
Replies (1 - 5)
post Sep 14 2019, 08:15:55
Post #2

hearer & reader
**************
Group: Металариец
Posts: 8,045
Releases: 104
From: Moscow
On Forums: 12 years 2 weeks
Thanks: 7527 time(s)
Russian Federation


Украина стала частью Швейцарии?
Молодец Зеленский!
Мои поздравления всем украинцам!
Go to the top of the page
  Insert nick Quick quote
+Quote Post
post Sep 14 2019, 08:24:41
Post #3
BAN
Banned till
Oct 6 2019, 16:10:14



ЦИТАТА(AHBAnep @ Sep 14 2019, 12:15:55) *
Украина стала частью Швейцарии?
Молодец Зеленский!
Мои поздравления всем украинцам!

Срочно завожу трактор в жовто блакитнию
Go to the top of the page
  Insert nick Quick quote
+Quote Post
post Sep 14 2019, 11:41:32
Post #4

Мегаманьяк
***********
Group: Металариец
Posts: 1,558
Releases: 0
On Forums: 10 years 6 months
Thanks: 575 time(s)
Antarctica


Классная картина. Натурально передана атмосфера лунной ночи в заснеженном поле. Словно сам там очутился.

По музыке: унылый замедлённый блэк. Вокал бесит, но это уже дело во мне, конечно же (IMG:style_emoticons/default/5.gif)


Thanks:
(1) SyncestrA,
Go to the top of the page
  Insert nick Quick quote
+Quote Post
post Sep 15 2019, 15:33:37
Post #5

Ёлд ХеллоВяйне
Group Icon
Group: V.I.P
Posts: 27,800
Releases: 132
From: Питер
On Forums: 12 years 10 months
Thanks: 15728 time(s)
Russian Federation


QUOTE
THIS ALBUM IS NOT FOR SALE ON Bandcamp.
Buy Digital Album €0.75 EUR


Вот тут я не понял.
Go to the top of the page
  Insert nick Quick quote
+Quote Post
post Sep 16 2019, 12:07:48
Post #6

Group: Подсевший
Posts: 16
Releases: 1
On Forums: 9 years 11 months
Thanks: 80 time(s)
Ukraine


Loneravn Records - лейбл ветерана АТО (батальон Донбасс)


Thanks:
(1) isvili,
Go to the top of the page
  Insert nick Quick quote
+Quote Post

Reply to this topicStart new topic
1 User(s) are reading this topic (1 Guests and 0 Anonymous Users)
0 Members:

 



- Lo-Fi Version Support form
Copyrights and abuse reports form
Time is now: 21st September 2019 - 22:18:59