Welcome Guest ( Log In | Register )

> Releases Upload / Добавление релизов

Добавить релиз тут / Click here to add release
Рекомендованные обменники / Recommended file shares

 
Reply to this topicStart new topic
> Mysticis - Insomnia (2019), Instrumental/Progressive Metal
post Sep 13 2019, 14:48:10
Post #1

Serial Uploader
Group Icon
Group: V.I.P
Posts: 36,147
Releases: 34346
From: Lithuania
On Forums: 11 years 3 months
Thanks: 398337 time(s)
Lithuania


(IMG:https://metalarea.org/images/audiocovers/2019_Sep/acov_tid327364_thumb.jpg)

*Artist: Mysticis
*Album: Insomnia
*Year: 2019
*Genre: Instrumental/Progressive Metal
*Country: United States (IMG:https://metalarea.org/forum/style_images/flags/United%20States.png)
*Format: mp3@CBR320kbps
*Size: 73MB

Tracklist:
01. The Fall 03:17
02. Unreal 03:44
03. Feathered Serpent 04:58
04. Drowned 03:59
05. Insomnia 05:21
06. Voices 01:37
07. Paralysis 03:53
08. Liberate 04:31
******************************
Total playing time: 31:20

(IMG:https://metalarea.org/images/youtube.png)

Technical info
(IMG:https://metalarea.org/images/spectrogram/2019_Sep/35ffb2cfa91a71f82df45a12eeae0c52.png)
Input File: 02. Unreal.mp3
Channels : 2
Sample Rate : 44100
Precision : 16-bit
Duration : 00:03:44.46 = 9898642 samples = 16834.4 CDDA sectors
File Size : 9.16M
Bit Rate : 327k
Sample Encoding: MPEG audio (layer I, II or III)
Comments :
Title=Unreal
Artist=Mysticis
Album=Insomnia
Tracknumber=2/8
Year=2019



Register


Thanks:
Go to the top of the page
  Insert nick Quick quote
+Quote Post

Reply to this topicStart new topic
1 User(s) are reading this topic (1 Guests and 0 Anonymous Users)
0 Members:

 



- Lo-Fi Version Support form
Copyrights and abuse reports form
Time is now: 21st September 2019 - 05:36:31