Welcome Guest ( Log In | Register )

> Releases Upload / Добавление релизов

Добавить релиз тут / Click here to add release
Рекомендованные обменники / Recommended file shares

 
Reply to this topicStart new topic
> The Sleer - Vigil (2019), Blackened Sludge/Doom Metal
post Sep 13 2019, 14:55:13
Post #1

Serial Uploader
Group Icon
Group: V.I.P
Posts: 36,147
Releases: 34346
From: Lithuania
On Forums: 11 years 3 months
Thanks: 398337 time(s)
Lithuania


(IMG:https://metalarea.org/images/audiocovers/2019_Sep/acov_tid327365_thumb.jpg)

*Artist: The Sleer
*Album: Vigil
*Year: 2019
*Genre: Blackened Sludge/Doom Metal
*Country: United States (IMG:https://metalarea.org/forum/style_images/flags/United%20States.png)
*Format: mp3@CBR320kbps
*Size: 88MB

Tracklist:
01. Wear This Shroud
02. White Stone
03. Can't Let Mother Drown
04. You Will Hold My Vigil
******************************
Total playing time: 38:16



(IMG:https://metalarea.org/images/youtube.png)

Technical info
(IMG:https://metalarea.org/images/spectrogram/2019_Sep/66a16ebf726d07a328c2cfbef59a2332.png)
Input File: 02. White Stone.mp3
Channels : 2
Sample Rate : 44100
Precision : 16-bit
Duration : 00:07:57.42 = 21054090 samples = 35806.3 CDDA sectors
File Size : 19.4M
Bit Rate : 325k
Sample Encoding: MPEG audio (layer I, II or III)
Comments :
Title=White Stone
Artist=The Sleer
Album=Vigil
Tracknumber=2/4
Year=2019



Register


Go to the top of the page
  Insert nick Quick quote
+Quote Post

Reply to this topicStart new topic
1 User(s) are reading this topic (1 Guests and 0 Anonymous Users)
0 Members:

 



- Lo-Fi Version Support form
Copyrights and abuse reports form
Time is now: 21st September 2019 - 05:39:27