Welcome Guest ( Log In | Register )

> Releases Upload / Добавление релизов

Добавить релиз тут / Click here to add release
Рекомендованные обменники / Recommended file shares

> Oox - U.N.O. (2019), Symphonic Progressive Metal
post Sep 13 2019, 15:08:04
Post #1

Serial Uploader
Group Icon
Group: V.I.P
Posts: 36,147
Releases: 34346
From: Lithuania
On Forums: 11 years 3 months
Thanks: 398344 time(s)
Lithuania


(IMG:https://metalarea.org/images/audiocovers/2019_Sep/acov_tid327366_thumb.jpg)

*Artist: Oox
*Album: U.N.O.
*Year: 2019
*Genre: Symphonic Progressive Metal
*Country: United States (IMG:https://metalarea.org/forum/style_images/flags/United%20States.png)
*Format: mp3@CBR320kbps
*Size: 95MB

Tracklist:
01. Deus Ex Machina
02. New World
03. Human
04. Decadencia
05. War is Never Done
06. Modern Inquisitor
07. Wak
******************************
Total playing time: 41:17



Technical info
(IMG:https://metalarea.org/images/spectrogram/2019_Sep/0f39f576c7313547144c05dab603a955.png)
Input File: 2 - New World.mp3
Channels : 2
Sample Rate : 44100
Precision : 16-bit
Duration : 00:06:18.14 = 16676106 samples = 28360.7 CDDA sectors
File Size : 15.2M
Bit Rate : 321k
Sample Encoding: MPEG audio (layer I, II or III)
Comments :
Title=New World
Artist=Oox
Album=U.N.O.
Tracknumber=2
Year=2019
Genre=Rock/Metal
Discnumber=1



Register


Go to the top of the page
  Insert nick Quick quote
+Quote Post
 
Start new topic
Replies (1 - 1)
post Sep 14 2019, 08:12:52
Post #2

hearer & reader
**************
Group: Металариец
Posts: 8,041
Releases: 104
From: Moscow
On Forums: 12 years 1 week
Thanks: 7526 time(s)
Russian Federation



Carlos Avila from Mexico City, Mexico
Go to the top of the page
  Insert nick Quick quote
+Quote Post

Reply to this topicStart new topic
1 User(s) are reading this topic (1 Guests and 0 Anonymous Users)
0 Members:

 



- Lo-Fi Version Support form
Copyrights and abuse reports form
Time is now: 21st September 2019 - 05:46:41