Welcome Guest ( Log In | Register )

> Releases Upload / Добавление релизов

Добавить релиз тут / Click here to add release
Рекомендованные обменники / Recommended file shares

 
Reply to this topicStart new topic
> Cain - Cain (2019), Sludge/Doom Metal (D11)
post Sep 13 2019, 15:23:18
Post #1

Serial Uploader
Group Icon
Group: V.I.P
Posts: 36,147
Releases: 34346
From: Lithuania
On Forums: 11 years 3 months
Thanks: 398356 time(s)
Lithuania


(IMG:https://metalarea.org/images/audiocovers/2019_Sep/acov_tid327367_thumb.jpg)

*Artist: Cain
*Album: Cain
*Year: 2019
*Genre: Sludge/Doom Metal
*Country: United Kingdom (IMG:https://metalarea.org/forum/style_images/flags/United%20Kingdom.png)
*Format: mp3@CBR320kbps
*Size: 169MB

Tracklist:
01. Oberon Desolate One 13:53
02. Screams of the Reaper 07:11
03. Crucify 08:06
04. Into This Skull 10:30
05. Masters of Death 05:23
06. Bleeding 11:26
07. Ultimate Elevation 07:37
08. Lone Wolf 09:46
******************************
Total playing time: 1:13:52

Technical info
(IMG:https://metalarea.org/images/spectrogram/2019_Sep/4df0c4571066bc934942e4e49e2a7bc3.png)
Input File: 2 - Screams of the Reaper.mp3
Channels : 2
Sample Rate : 44100
Precision : 16-bit
Duration : 00:07:11.28 = 19019404 samples = 32345.9 CDDA sectors
File Size : 17.3M
Bit Rate : 322k
Sample Encoding: MPEG audio (layer I, II or III)
Comments :
Title=Screams of the Reaper
Artist=CAiN
Album=Cain
Tracknumber=2
Year=2019
Genre=Metal
Discnumber=1



Register


Go to the top of the page
  Insert nick Quick quote
+Quote Post

Reply to this topicStart new topic
1 User(s) are reading this topic (1 Guests and 0 Anonymous Users)
0 Members:

 



- Lo-Fi Version Support form
Copyrights and abuse reports form
Time is now: 21st September 2019 - 05:54:34