Welcome Guest ( Log In | Register )

> Releases Upload / Добавление релизов

Добавить релиз тут / Click here to add release
Рекомендованные обменники / Recommended file shares

> Nokchampa - Dragonfly Of Black And Blue (2019), Experimental Metal
post Sep 13 2019, 15:33:12
Post #1

Serial Uploader
Group Icon
Group: V.I.P
Posts: 36,147
Releases: 34346
From: Lithuania
On Forums: 11 years 3 months
Thanks: 398358 time(s)
Lithuania


(IMG:https://metalarea.org/images/audiocovers/2019_Sep/acov_tid327368_thumb.jpg)

*Artist: Nokchampa
*Album: Dragonfly Of Black And Blue
*Year: 2019
*Genre: Experimental Metal
*Country: United States (IMG:https://metalarea.org/forum/style_images/flags/United%20States.png)
*Format: mp3@CBR320kbps
*Size: 112MB

Tracklist:
01. Karma 04:02
02. Living Experiments 04:00
03. The Tim Hecker Shows/ Happy to be Alive 06:06
04. Tree Hugging Dirt Worshiper 05:52
05. Advise for a Younger Self 03:59
06. 3MDC 09:12
07. In the Gut (Reprise) 06:32
08. Grey Matter 09:12
******************************
Total playing time: 48:55



Technical info
(IMG:https://metalarea.org/images/spectrogram/2019_Sep/d3ad8d26c0070641783c5bb093fbe3cb.png)
Input File: 2 - Living Experiments.mp3
Channels : 2
Sample Rate : 44100
Precision : 16-bit
Duration : 00:04:00.08 = 10587440 samples = 18005.9 CDDA sectors
File Size : 9.68M
Bit Rate : 322k
Sample Encoding: MPEG audio (layer I, II or III)
Comments :
Title=Living Experiments
Artist=Nokchampa
Album=Dragonfly of Black and Blue
Tracknumber=2
Year=2019
Genre=Rock/Hard Rock
Discnumber=1



Register


Go to the top of the page
  Insert nick Quick quote
+Quote Post
 
Start new topic
Replies (1 - 1)
post Sep 15 2019, 10:17:23
Post #2

кручу наждак
**************
Group: Металариец
Posts: 4,036
Releases: 97
From: Самара
On Forums: 9 years 4 months
Thanks: 3070 time(s)
Russian Federation


Что-то в этом есть, какой-то мрачный надрыв. В целом сильно на любителя.
Go to the top of the page
  Insert nick Quick quote
+Quote Post

Reply to this topicStart new topic
1 User(s) are reading this topic (1 Guests and 0 Anonymous Users)
0 Members:

 



- Lo-Fi Version Support form
Copyrights and abuse reports form
Time is now: 21st September 2019 - 06:03:07