Welcome Guest ( Log In | Register )

> Kostnatění - Hrůza Zvítězí (2019), Black Metal
post Sep 13 2019, 16:26:54
Post #1

Четыре Литра
****
Group: Металариец
Posts: 322
Releases: 181
On Forums: 7 years 2 months
Thanks: 4416 time(s)
Unknown


(IMG:http://metalarea.org/images/audiocovers/2019_Sep/acov_tid327369_thumb.jpg)

*Artist: Kostnatění
*Album: Hrůza Zvítězí
*Year: 2019
*Genre: Black Metal
*Country: United States (IMG:http://metalarea.org/forum/style_images/flags/United%20States.png)
*Format: mp3@CBR320kbps
*Size: 98MB

Tracklist:
1. Hrůza zvítězí 11:28
2. Jedna generace 06:34
3. Každé zranění předurčeno 06:38
4. Únik z existence 03:51
5. Donekonečna v přítomném čase 09:25
******************************
Total playing time: 37:56



Extended info
Thanks to Daale.

HRŮZA ZVÍTĚZÍ ("horror will prevail") has been created as a monument to death. Not a fantastical death with promises something beyond this world, but the cessation of being which looms at the end of all lives. As I wrote the songs which became HRŮZA ZVÍTĚZÍ, I was obsessed by my own death, constantly fighting off panic attacks relating to dying, and living in a constant suffocating dread. Every section was written with the explicit goal of conveying this dread, while also pushing my own limits as an artist. Retrospectively, I believe this album to have been meditative and liberating for me: much of the anxiety that once plagued me is now enshrined here, forever.

KOSTNATĚNÍ is written, recorded, and mixed by D.L.

Abe Plaut - Trumpet on "Hrůza zvítězí"
S.H. - Noise on "Donekonečna v přítomném čase"
Jacob Buczarski - Drum programming, mixing, mastering
Frank Heiler - Artwork

Thanks to:

Andrew Lee
Markov Soroka
Mystískaos
The RIM
Serpent Column
TapeKvlt


Technical info
(IMG:http://metalarea.org/images/spectrogram/2019_Sep/5de2ad3b51df1e39df081089849f7d47.png)
Input File: Kostnatění - Hrůza zvítězí - 01 Hrůza zvítězí.mp3
Channels : 2
Sample Rate : 44100
Precision : 16-bit
Duration : 00:11:28.13 = 30346489 samples = 51609.7 CDDA sectors
File Size : 27.7M
Bit Rate : 322k
Sample Encoding: MPEG audio (layer I, II or III)
Comments :
Title=Hrůza zvítězí
Artist=Kostnatění
Album=Hrůza zvítězí
Tracknumber=1
Year=2019



Register


Go to the top of the page
  Insert nick Quick quote
+Quote Post
 
Start new topic
Replies (1 - 5)
post Sep 14 2019, 08:50:55
Post #2

Четыре Литра
****
Group: Металариец
Posts: 348
Releases: 0
On Forums: 5 months 1 week
Thanks: 218 time(s)
Russian Federation


Развитие идей демки в стиле, больше укоренённом в диссонансах и хаотичности, близком к DsO и т.д. Работа будет в моём топе года, что, в общем-то, уже было понятно после стрима альбома, и теперь, расслушивая его, я только убеждаюсь в этом.


Thanks:
(1) luxxul,
Go to the top of the page
  Insert nick Quick quote
+Quote Post
post Sep 14 2019, 11:15:57
Post #3

sycamore trees
**************
Group: Металариец
Posts: 3,131
Releases: 0
On Forums: 3 years 9 months
Thanks: 1902 time(s)
Unknown


какофония
Go to the top of the page
  Insert nick Quick quote
+Quote Post
post Sep 14 2019, 17:49:58
Post #4

Мегаманьяк
***********
Group: Металариец
Posts: 1,611
Releases: 0
On Forums: 10 years 8 months
Thanks: 615 time(s)
Antarctica


хунта
Go to the top of the page
  Insert nick Quick quote
+Quote Post
post Sep 16 2019, 05:48:58
Post #5

Самый Тихий Час
**************
Group: Металариец
Posts: 5,799
Releases: 0
On Forums: 10 years 1 week
Thanks: 2621 time(s)
Unknown


облога огонь
Go to the top of the page
  Insert nick Quick quote
+Quote Post
post Sep 17 2019, 09:54:47
Post #6

Necromancer
Group Icon
Group: Curation team
Posts: 10,967
Releases: 271
From: Зеленоград
On Forums: 13 years 1 month
Thanks: 8793 time(s)
Russian Federation


Сплошной хаос, да и только. (IMG:style_emoticons/default/21.gif)
Go to the top of the page
  Insert nick Quick quote
+Quote Post

Reply to this topicStart new topic
1 User(s) are reading this topic (1 Guests and 0 Anonymous Users)
0 Members:

 



- Lo-Fi Version Support form
Copyrights and abuse reports form
Time is now: 21st November 2019 - 09:49:17