Welcome Guest ( Log In | Register )

> Releases Upload / Добавление релизов

Добавить релиз тут / Click here to add release
Рекомендованные обменники / Recommended file shares

> Kostnatění - Konec Je Všude [demo] (2018), Black Metal
post Sep 13 2019, 16:43:53
Post #1

Три Литра
***
Group: Завсегдатай
Posts: 275
Releases: 145
On Forums: 7 years 1 week
Thanks: 3516 time(s)
Unknown


(IMG:http://metalarea.org/images/audiocovers/2019_Sep/acov_tid327371_thumb.jpg)

*Artist: Kostnatění
*Album: Konec Je Všude [demo]
*Year: 2018
*Genre: Black Metal
*Country: United States (IMG:http://metalarea.org/forum/style_images/flags/United%20States.png)
*Format: mp3@CBR320kbps
*Size: 48MB

Tracklist:
1. Ukrást jediné ticho 06:18
2. Vyschnutí v poušti 07:05
3. Zlato a stříbro 06:29
******************************
Total playing time: 19:52



Extended info
ALCHEMY WITH MORTAL FLESH

Convoluted and labyrinthian, the debut recording from KOSTNATĚNÍ begins a premeditated journey to an uncharted destination.

Napsáno, zkomponováno a nahráno od roku 2015 do září 2017.

D.L. - všechny nástroje, zpěv, mix
Charles Wong - mastering


Technical info
(IMG:http://metalarea.org/images/spectrogram/2019_Sep/8a7b1911ada99ff0fb659a4fefec9541.png)
Input File: Kostnatění - Konec je všude - 01 Ukrást jediné ticho.mp3
Channels : 2
Sample Rate : 44100
Precision : 16-bit
Duration : 00:06:19.01 = 16714121 samples = 28425.4 CDDA sectors
File Size : 15.3M
Bit Rate : 323k
Sample Encoding: MPEG audio (layer I, II or III)
Comments :
Title=Ukrást jediné ticho
Artist=Kostnatění
Album=Konec je všude
Tracknumber=1
Year=2018



Register


Go to the top of the page
  Insert nick Quick quote
+Quote Post
 
Start new topic
Replies (1 - 2)
post Sep 14 2019, 04:20:03
Post #2

Правь статус, ####!111
**************
Group: Металариец
Posts: 3,874
Releases: 947
From: Brazil
On Forums: 7 years 7 months
Thanks: 35119 time(s)
Brazil


Kostnatění - Konec Je Všude [demo] (2018)

this has been posted here before


Go to the top of the page
  Insert nick Quick quote
+Quote Post
post Sep 16 2019, 07:43:40
Post #3

Forever Underground
**************
Group: Металариец
Posts: 6,071
Releases: 0
On Forums: 4 years 5 months
Thanks: 6741 time(s)
Unknown


1) Kostnatění - Konec Je Všude [demo] (2018) [post #2179521]
2) Kostnatění - Konec Je Všude [demo] (2018) [post #2383091]

Mods, merge these threads, please (2 threads for the same release...) (IMG:style_emoticons/default/9.gif) (IMG:style_emoticons/default/bye.gif)
Go to the top of the page
  Insert nick Quick quote
+Quote Post

Reply to this topicStart new topic
1 User(s) are reading this topic (1 Guests and 0 Anonymous Users)
0 Members:

 



- Lo-Fi Version Support form
Copyrights and abuse reports form
Time is now: 21st September 2019 - 22:34:15