Welcome Guest ( Log In | Register )

> Releases Upload / Добавление релизов

Добавить релиз тут / Click here to add release
Рекомендованные обменники / Recommended file shares

 
Reply to this topicStart new topic
> Winterfylleth - Winterfylleth - The Siege Of Mercia: Live At Bloodstock 2017 [live] (2019), Atmospheric Black/Pagan Metal (D)
post Sep 13 2019, 16:50:41
Post #1

Три Литра
***
Group: Завсегдатай
Posts: 295
Releases: 157
On Forums: 7 years 1 month
Thanks: 3838 time(s)
Unknown


(IMG:http://metalarea.org/images/audiocovers/2019_Sep/acov_tid327372_thumb.jpg)

*Artist: Winterfylleth
*Album: Winterfylleth - The Siege Of Mercia: Live At Bloodstock 2017 [live]
*Year: 2019
*Genre: Atmospheric Black/Pagan Metal
*Country: United Kingdom (IMG:http://metalarea.org/forum/style_images/flags/United%20Kingdom.png)
*Format: mp3@CBR320kbps
*Size: 113MB

Tracklist:
1. The Solitary One Waits For Grace: The Wayfarer Pt. 1 (Live) 07:39
2. The Swart Raven (Live) 08:06 video
3. Whisper Of The Elements (Live) 07:42
4. A Valley Thick With Oaks (Live) 08:08
5. Defending The Realm (Live) 07:01
6. Children Of The Stones (Exclusive Synth Version 2019) 10:12
******************************
Total playing time: 48:48



Extended info
Recorded Live at Bloodstock Festival 2017


Technical info
(IMG:http://metalarea.org/images/spectrogram/2019_Sep/9d3fdbaa962b13002918fef5bac073df.png)
Input File: 1 - The Solitary One Waits For Grace (Live At Bloodstock, UK, 2017 _ The Wayfarer, Pt. 1).mp3
Channels : 2
Sample Rate : 44100
Precision : 16-bit
Duration : 00:07:39.50 = 20263774 samples = 34462.2 CDDA sectors
File Size : 18.5M
Bit Rate : 323k
Sample Encoding: MPEG audio (layer I, II or III)
Comments :
Title=The Solitary One Waits For Grace (Live At Bloodstock, UK, 2017 / The Wayfarer, Pt. 1)
Artist=Winterfylleth
Album=The Siege Of Mercia: Live At Bloodstock 2017
Tracknumber=1
Year=2019
Genre=9
Discnumber=1



Register


Go to the top of the page
  Insert nick Quick quote
+Quote Post

Reply to this topicStart new topic
1 User(s) are reading this topic (1 Guests and 0 Anonymous Users)
0 Members:

 



- Lo-Fi Version Support form
Copyrights and abuse reports form
Time is now: 17th October 2019 - 18:58:23