Welcome Guest ( Log In | Register )

> Releases Upload / Добавление релизов

Добавить релиз тут / Click here to add release
Рекомендованные обменники / Recommended file shares

> Ведьмин Круг - Totem (2019), Raw Black Metal
post Sep 13 2019, 18:00:04
Post #1

Девять Литров
*********
Group: Металариец
Posts: 994
Releases: 832
From: Новороссийск
On Forums: 8 years 4 months
Thanks: 14720 time(s)
Russian Federation


(IMG:https://metalarea.org/images/audiocovers/2019_Sep/acov_tid327374_thumb.jpg)

*Artist: Ведьмин Круг
*Album: Totem
*Year: 2019
*Genre: Raw Black Metal
*Country: Russian Federation (IMG:https://metalarea.org/forum/style_images/flags/Russian%20Federation.png)
*Format: mp3@CBR320kbps
*Size: 94MB

Tracklist:
01. Non Serviam! 05:32
02. К Горним Чертогам 06:04
03. Смерть Осени 04:41
04. Заря Нового Мира 05:18
05. Солнцеворот 05:43
06. Кровь к Земле 04:54
07. Ритуал 03:25
08. Отец-Север 05:09
******************************
Total playing time: 40:50



Technical info
(IMG:https://metalarea.org/images/spectrogram/2019_Sep/6ac55bf041737248d86f54a73b17af52.png)
Input File: 01 Non Serviam!.mp3
Channels : 2
Sample Rate : 44100
Precision : 16-bit
Duration : 00:05:32.56 = 14665896 samples = 24942 CDDA sectors
File Size : 13.3M
Bit Rate : 320k
Sample Encoding: MPEG audio (layer I, II or III)
Comments :
Title=Non Serviam!
Artist=Vedmin Krug
Album=Totem
Tracknumber=01
Year=2019
Genre=Black Metal



Register


Go to the top of the page
  Insert nick Quick quote
+Quote Post
 
Start new topic
Replies (1 - 2)
post Sep 14 2019, 06:44:01
Post #2

poison creosote
*******
Group: Металариец
Posts: 748
Releases: 1
On Forums: 2 years 3 months
Thanks: 385 time(s)
Iceland


Ну и какой это к чёрту raw? мелодик блэк c примесями атмосферика, к тому же довольно скучный. А я уж было заинтересовался.

На бандкампе указано "cold raw atmospheric black metal". Чувак, послушай например Древедь - вот это raw. А не вот это вот всё.

в целом вообще на Сыны Севера похоже (IMG:style_emoticons/default/1488.gif)
Go to the top of the page
  Insert nick Quick quote
+Quote Post
post Sep 14 2019, 07:54:20
Post #3
BAN
Banned till
Oct 6 2019, 16:10:14



Какие же у них смешные названия
Go to the top of the page
  Insert nick Quick quote
+Quote Post

Reply to this topicStart new topic
1 User(s) are reading this topic (1 Guests and 0 Anonymous Users)
0 Members:

 



- Lo-Fi Version Support form
Copyrights and abuse reports form
Time is now: 21st September 2019 - 06:14:25