Welcome Guest ( Log In | Register )

> Releases Upload / Добавление релизов

Добавить релиз тут / Click here to add release
Рекомендованные обменники / Recommended file shares

 
Reply to this topicStart new topic
> Wintaar - Frozen Eschatology (2019), Atmospheric Black Metal (D)
post Sep 13 2019, 18:41:01
Post #1

Девять Литров
*********
Group: Металариец
Posts: 994
Releases: 832
From: Новороссийск
On Forums: 8 years 4 months
Thanks: 14720 time(s)
Russian Federation


(IMG:https://metalarea.org/images/audiocovers/2019_Sep/acov_tid327376_thumb.jpg)

*Artist: Wintaar
*Album: Frozen Eschatology
*Year: 2019
*Genre: Atmospheric Black Metal
*Country: Russian Federation (IMG:https://metalarea.org/forum/style_images/flags/Russian%20Federation.png)
*Format: mp3@CBR320kbps
*Size: 117MB

Tracklist:
01. The Call 09:08
02. Forevercold Night 07:34
03. Frozen 10:25
04. Erased By Ice 08:00
05. Eschatology 11:27
06. When Life Ends 04:18
******************************
Total playing time: 50:54



Technical info
(IMG:https://metalarea.org/images/spectrogram/2019_Sep/d679e3d6d90850d9be259f7d06a3c34f.png)
Input File: 01. The Call.mp3
Channels : 2
Sample Rate : 44100
Precision : 16-bit
Duration : 00:09:08.16 = 24173856 samples = 41112 CDDA sectors
File Size : 21.9M
Bit Rate : 320k
Sample Encoding: MPEG audio (layer I, II or III)
Comments :
Title=The Call
Artist=Wintaar
Album=Frozen Eschatology
Tracknumber=01
Year=2019
Genre=Black Metal



Register


Go to the top of the page
  Insert nick Quick quote
+Quote Post

Reply to this topicStart new topic
1 User(s) are reading this topic (1 Guests and 0 Anonymous Users)
0 Members:

 



- Lo-Fi Version Support form
Copyrights and abuse reports form
Time is now: 21st September 2019 - 06:30:31