Welcome Guest ( Log In | Register )

> И неформату есть предел.

Рэп/хип-хоп/шансон/поп удаляются. Для них есть свои порталы.

> Ash Ra Tempel - Schwingungen (1972), Kraut Rock
post Sep 14 2019, 04:56:28
Post #1

Враг Газпрома
**************
Group: Металариец
Posts: 6,684
Releases: 0
On Forums: 12 years 7 months
Thanks: 2818 time(s)
Russian Federation


(IMG:https://metalarea.org/images/audiocovers/2019_Sep/acov_tid327388_thumb.jpg)

*Artist: Ash Ra Tempel
*Album: Schwingungen
*Year: 1972
*Genre: Kraut Rock
*Country: Germany (IMG:https://metalarea.org/forum/style_images/flags/Germany.png)
*Format: mp3@CBR320kbps
*Size: 102MB

Tracklist:
01. Light And Darkness a) Light Look at Your Sun 6:35
02. Light And Darkness b) Darkness Flowers Must Die 12:25
03. Schwingungen a) Suche and b) Liebe 19:24
******************************
Total playing time: 38:24

Technical info
(IMG:https://metalarea.org/images/spectrogram/2019_Sep/31ff79d02f43e83785b71e5872a3b20d.png)
Input File: 01. Light And Darkness a) Light Look at Your Sun.mp3
Channels : 2
Sample Rate : 44100
Precision : 16-bit
Duration : 00:06:36.00 = 17463468 samples = 29699.8 CDDA sectors
File Size : 17.0M
Bit Rate : 343k
Sample Encoding: MPEG audio (layer I, II or III)
Comments :
Title=Light And Darkness: a) Light: Look at Your Sun
Artist=Ash Ra Tempel
Album=Schwingungen
Tracknumber=01



Register


Thanks:
Go to the top of the page
  Insert nick Quick quote
+Quote Post
 
Start new topic
Replies (1 - 1)
post Sep 14 2019, 12:24:30
Post #2

Враг Газпрома
**************
Group: Металариец
Posts: 6,684
Releases: 0
On Forums: 12 years 7 months
Thanks: 2818 time(s)
Russian Federation


Register


Thanks:
Go to the top of the page
  Insert nick Quick quote
+Quote Post

Reply to this topicStart new topic
1 User(s) are reading this topic (1 Guests and 0 Anonymous Users)
0 Members:

 



- Lo-Fi Version Support form
Copyrights and abuse reports form
Time is now: 20th January 2022 - 23:19:33