Welcome Guest ( Log In | Register )

> И неформату есть предел.

Рэп/хип-хоп/шансон/поп удаляются. Для них есть свои порталы.

> Chelsea Wolfe - Daytrotter Session 2/14/2012 [ep] (2012), Atmospheric Folk/Ethereal (D11)
post Sep 14 2019, 08:29:19
Post #1

Четыре Литра
****
Group: Металариец
Posts: 378
Releases: 137
From: Helvetia
On Forums: 8 years 10 months
Thanks: 2979 time(s)
Switzerland


(IMG:https://metalarea.org/images/audiocovers/2019_Sep/acov_tid327398_thumb.jpg)

*Artist: Chelsea Wolfe
*Album: Daytrotter Session 2/14/2012 [ep]
*Year: 2012
*Genre: Atmospheric Folk/Ethereal
*Country: United States (IMG:https://metalarea.org/forum/style_images/flags/United%20States.png)
*Format: mp3@CBR320kbps
*Size: 36MB

Tracklist:
1. Welcome To Daytrotter 0:03
2. Benjamin 4:36
3. Mer 4:45
4. Tracks 3:48
5. Feral Love 3:21
******************************
Total playing time: 16:33

(IMG:https://metalarea.org/images/youtube.png)



Extended info
Daytrotter session recorded at Studio Paradiso, San Francisco, CA, Feb 14, 2012.

Subtitle: The Icy Waters Of The Human Unraveling.

The session is available to stream or download at the Daytrotter site.


Technical info
(IMG:https://metalarea.org/images/spectrogram/2019_Sep/1a4c9999f1b18ea0299ed34262b83db8.png)
Input File: 02. Benjamin.mp3
Channels : 2
Sample Rate : 44100
Precision : 16-bit
Duration : 00:04:36.19 = 12179759 samples = 20713.9 CDDA sectors
File Size : 11.1M
Bit Rate : 321k
Sample Encoding: MPEG audio (layer I, II or III)
Comments :
Title=Benjamin
Artist=Chelsea Wolfe
Album=Daytrotter Session
Tracknumber=02
Year=2012
Genre=Ethereal Wave, Gothic Rock



Register


Go to the top of the page
  Insert nick Quick quote
+Quote Post
 
Start new topic
Replies (1 - 1)
post Sep 14 2019, 18:16:17
Post #2

Пять Литров
*****
Group: Металариец
Posts: 422
Releases: 0
On Forums: 12 years 6 months
Thanks: 117 time(s)
Russian Federation


За такие подгоны тебя, бро, расцеловать надо! Спасибо, братанчик и дружаня! От моей бабы поцелуй в хуй)))) Вот даст [мат->бан]юлей мне мою любимая)) но ради Членси я готов) спасибо!


Thanks:
Go to the top of the page
  Insert nick Quick quote
+Quote Post

Reply to this topicStart new topic
2 User(s) are reading this topic (2 Guests and 0 Anonymous Users)
0 Members:

 



- Lo-Fi Version Support form
Copyrights and abuse reports form
Time is now: 6th December 2021 - 00:27:03