Welcome Guest ( Log In | Register )

> Anima Frisia - Ekke Nekke Penn (2019), Pagan Metal
post Sep 14 2019, 17:09:28
Post #1

Serial Uploader
Group Icon
Group: V.I.P
Posts: 36,586
Releases: 34775
From: Lithuania
On Forums: 11 years 6 months
Thanks: 407155 time(s)
Lithuania


(IMG:http://metalarea.org/images/audiocovers/2019_Sep/acov_tid327416_thumb.jpg)

*Artist: Anima Frisia
*Album: Ekke Nekke Penn
*Year: 2019
*Genre: Pagan Metal
*Country: Germany (IMG:http://metalarea.org/forum/style_images/flags/Germany.png)
*Format: mp3@CBR320kbps
*Size: 91MB

Tracklist:
1. Lever duad üs Slaav 05:53
2. Leuchtfeuer 06:19
3. Fositasland 09:53
4. Hanelsman 05:37
5. Ekke Nekke Penn 10:09
******************************
Total playing time: 37:51



Technical info
(IMG:http://metalarea.org/images/spectrogram/2019_Sep/ec9d9777c62f8237a1cf36fa6c28048c.png)
Input File: 02. Leuchtfeuer.mp3
Channels : 2
Sample Rate : 44100
Precision : 16-bit
Duration : 00:06:19.56 = 16738464 samples = 28466.8 CDDA sectors
File Size : 16.0M
Bit Rate : 337k
Sample Encoding: MPEG audio (layer I, II or III)
Comments :
Title=Leuchtfeuer
Artist=Anima Frisia
Album=Ekke Nekke Penn
Tracknumber=2/5
Year=2019



Register


Go to the top of the page
  Insert nick Quick quote
+Quote Post
 
Start new topic
Replies (1 - 1)
post Sep 16 2019, 12:16:04
Post #2

Правь статус, ####!111
**************
Group: Металариец
Posts: 2,756
Releases: 8
From: Dnipro
On Forums: 11 years 4 months
Thanks: 863 time(s)
Ukraine


Такой Pagan Metal никогда не нравился.
Go to the top of the page
  Insert nick Quick quote
+Quote Post

Reply to this topicStart new topic
1 User(s) are reading this topic (1 Guests and 0 Anonymous Users)
0 Members:

 



- Lo-Fi Version Support form
Copyrights and abuse reports form
Time is now: 8th December 2019 - 19:09:36