Welcome Guest ( Log In | Register )

> Antídoto - Venenosa Humanidad (2019), Thrash Metal
post Sep 15 2019, 09:28:41
Post #1

Правь статус, ####!111
**************
Group: Металариец
Posts: 20,264
Releases: 13805
From: Г.Харьков
On Forums: 7 years 8 months
Thanks: 241096 time(s)
Unknown


(IMG:https://metalarea.org/images/audiocovers/2019_Sep/acov_tid327441_thumb.jpg)

*Artist: Antídoto
*Album: Venenosa Humanidad
*Year: 2019
*Genre: Thrash Metal
*Country: Colombia (IMG:https://metalarea.org/forum/style_images/flags/Colombia.png)
*Format: mp3@CBR320kbps
*Size: 68MB

Tracklist:
1. Intro 01:02
2. Nada es igual 03:49
3. Antídoto 03:15
4. En las ruinas del final 03:50
5. Temor 03:59
6. Pensamiento infernal 04:32
7. Mundo en llamas 04:35
8. Roman Circus 04:14
******************************
Total playing time: 29:16



Extended info
Jorge Leiva Bass, Vocals (backing)
Diego Trujillo Drums
Gilber Frade Guitars
Adol Moreno Guitars, Vocals



Technical info
(IMG:https://metalarea.org/images/spectrogram/2019_Sep/28146551185f315cae2d05e082f167e0.png)
Input File: 04. En las Ruinas del Final.mp3
Channels : 2
Sample Rate : 44100
Precision : 16-bit
Duration : 00:03:50.47 = 10163639 samples = 17285.1 CDDA sectors
File Size : 9.37M
Bit Rate : 325k
Sample Encoding: MPEG audio (layer I, II or III)
Comments :
Title=En las Ruinas del Final
Artist=Antídoto
Album=Venenosa Humanidad
Tracknumber=4
Year=2019-09-14
Discnumber=1



Register


Go to the top of the page
  Insert nick Quick quote
+Quote Post
 
Start new topic
Replies (1 - 2)
post Sep 15 2019, 20:42:13
Post #2

MDM-Thrash Metal
**************
Group: Металариец
Posts: 9,199
Releases: 765
From: Одесса
On Forums: 12 years 5 months
Thanks: 20620 time(s)
Ukraine


- View All 8 Tracks

Кстати, сыграно очень прилично. Понятное дело, что калька, но качественная!
Go to the top of the page
  Insert nick Quick quote
+Quote Post
post Sep 16 2019, 12:26:32
Post #3

Правь статус, ####!111
**************
Group: Металариец
Posts: 2,803
Releases: 8
From: Dnipro
On Forums: 11 years 6 months
Thanks: 888 time(s)
Ukraine


Вокал и язык не понравились. (IMG:style_emoticons/default/6.gif)
Go to the top of the page
  Insert nick Quick quote
+Quote Post

Reply to this topicStart new topic
1 User(s) are reading this topic (1 Guests and 0 Anonymous Users)
0 Members:

 



- Lo-Fi Version Support form
Copyrights and abuse reports form
Time is now: 19th January 2020 - 06:57:14