Welcome Guest ( Log In | Register )

 
Reply to this topicStart new topic
> Sacrifice - 1989 - Demo [demo] (1989), Thrash Metal (D)
post Sep 15 2019, 15:42:05
Post #1

In Reality Suffer
Group Icon
Group: Moderation team
Posts: 5,607
Releases: 450
From: Iran
On Forums: 10 years 11 months
Thanks: 13187 time(s)
Iran


(IMG:https://metalarea.org/images/audiocovers/2019_Sep/acov_tid327464_thumb.jpg)

*Artist: Sacrifice
*Album: 1989 - Demo [demo]
*Year: 1989
*Genre: Thrash Metal
*Country: Canada (IMG:https://metalarea.org/forum/style_images/flags/Canada.png)
*Format: mp3@CBR192kbps
*Size: 30MB

Tracklist:
1. As the World Burns 04:47
2. Existence Within Eternity 04:16
3. Pawn of Prophecy 03:32
4. Lost Through Time 04:19
5. Storm in the Silence 04:17
******************************
Total playing time: 21:11

Technical info
(IMG:https://metalarea.org/images/spectrogram/2019_Sep/0db752a9be8a1151e7afaa8e224ae727.png)
Input File: 1. As the World Burns-001.mka
Channels : 2
Sample Rate : 44100
Precision : 16-bit
Duration : 00:00:15.32 = 675436 samples = 1148.7 CDDA sectors
File Size : 368k
Bit Rate : 192k
Sample Encoding: MPEG audio (layer I, II or III)



Register


Go to the top of the page
  Insert nick Quick quote
+Quote Post

Reply to this topicStart new topic
1 User(s) are reading this topic (1 Guests and 0 Anonymous Users)
0 Members:

 



- Lo-Fi Version Support form
Copyrights and abuse reports form
Time is now: 29th March 2020 - 00:55:11