Welcome Guest ( Log In | Register )

> Kossatot - The Green [ep] (2019), Stoner/Doom Metal
post Sep 16 2019, 14:41:21
Post #1

Serial Uploader
Group Icon
Group: V.I.P
Posts: 37,601
Releases: 35773
From: Lithuania
On Forums: 13 years 1 week
Thanks: 432809 time(s)
Lithuania


(IMG:https://metalarea.org/images/audiocovers/2019_Sep/acov_tid327503_thumb.jpg)

*Artist: Kossatot
*Album: The Green [ep]
*Year: 2019
*Genre: Stoner/Doom Metal
*Country: United States (IMG:https://metalarea.org/forum/style_images/flags/United%20States.png)
*Format: mp3@CBR320kbps
*Size: 86MB

Tracklist:
01. The Flowerslave Trilogy 07:27
02. Stone Me 04:48
03. Herblife 06:24
04. Acid Wizards Funeral 06:08
05. Doomshroom 07:28
06. Israel's Son 05:06
******************************
Total playing time: 37:21



Technical info
(IMG:https://metalarea.org/images/spectrogram/2019_Sep/69e3ac8ac2217a9d56e6b34a02070346.png)
Input File: 05. Doomshroom.mp3
Channels : 2
Sample Rate : 44100
Precision : 16-bit
Duration : 00:07:28.63 = 19784495 samples = 33647.1 CDDA sectors
File Size : 18.0M
Bit Rate : 322k
Sample Encoding: MPEG audio (layer I, II or III)
Comments :
Title=Doomshroom
Artist=Kossatot
Album=The Green EP
Tracknumber=5/6
Year=2019
Genre=9
Discnumber=1/1



Register


Go to the top of the page
  Insert nick Quick quote
+Quote Post
 
Start new topic
Replies (1 - 2)
post Sep 16 2019, 21:13:42
Post #2

Маньяк
**********
Group: Металариец
Posts: 1,295
Releases: 1
From: Беларусь
On Forums: 13 years 5 months
Thanks: 548 time(s)
Russian Federation


С каких это пор стонир прогрессивном стал?


Thanks:
Go to the top of the page
  Insert nick Quick quote
+Quote Post
post Sep 17 2019, 09:34:39
Post #3

hearer & reader
**************
Group: Металариец
Posts: 9,746
Releases: 172
From: Moscow
On Forums: 13 years 9 months
Thanks: 10917 time(s)
Russian Federation


ЦИТАТА(Moonshtook @ Sep 16 2019, 23:13:42) *
С каких это пор стонир прогрессивном стал?


це ж Некроскам (IMG:style_emoticons/default/1488.gif)
Ну, маленько и прог присутствует..
Go to the top of the page
  Insert nick Quick quote
+Quote Post

Reply to this topicStart new topic
2 User(s) are reading this topic (2 Guests and 0 Anonymous Users)
0 Members:

 



- Lo-Fi Version Support form
Copyrights and abuse reports form
Time is now: 18th June 2021 - 04:04:10