Welcome Guest ( Log In | Register )

Объявления

* gmail.com упорно продолжает считать почту с нас "unsolicited" и отбивает в том числе и письма активации, поэтому просьба использовать альтернативные почтовые ящики.
------------
* gmail.com continues reject all mail from us as "unsolicited" (activation mails too) therefore please use alternate mail servers.
> Spider Kickers - Ektroma (2019), Death/Thrash Metal
post Sep 19 2019, 13:37:03
Post #1

Правь статус, ####!111
**************
Group: Металариец
Posts: 35,961
Releases: 26798
From: Г.Харьков
On Forums: 12 years 2 weeks
Thanks: 581424 time(s)
Ukraine


(IMG:https://metalarea.org/images/audiocovers/2019_Sep/acov_tid327628_thumb.jpg)

*Artist: Spider Kickers
*Album: Ektroma
*Year: 2019
*Genre: Death/Thrash Metal
*Country: Greece (IMG:https://metalarea.org/forum/style_images/flags/Greece.png)
*Format: mp3@CBR320kbps
*Size: 90MB

Tracklist:
1. Ektroma
2. Inner Grave
3. Vanity in Front
4. Nightmare Receiver
5. Carnivores
6. Isolation Cell
7. Jehovah Complex
8. Lord Great Ra
******************************
Total playing time: 39:09




Extended info
Motor Nakas Bass
James Edouarth Drums, Vocals
Kostas Guitars
Panos Kaides Guitars


Technical info
(IMG:https://metalarea.org/images/spectrogram/2019_Sep/0aa4062a84dc11cb561cac3beaea0e97.png)
Input File: 3 - Vanity in Front.mp3
Channels : 2
Sample Rate : 44100
Precision : 16-bit
Duration : 00:05:31.54 = 14620826 samples = 24865.4 CDDA sectors
File Size : 13.3M
Bit Rate : 321k
Sample Encoding: MPEG audio (layer I, II or III)
Comments :
Title=Vanity in Front
Artist=Spider Kickers
Album=Ektroma
Tracknumber=3
Year=2019
Discnumber=1



Register


Go to the top of the page
  Insert nick Quick quote
+Quote Post
 
Start new topic
Replies (1 - 5)
post Sep 19 2019, 23:28:07
Post #2

Два Литра
**
Group: Завсегдатай
Posts: 194
Releases: 5
On Forums: 12 years 3 months
Thanks: 352 time(s)
Ukraine




Go to the top of the page
  Insert nick Quick quote
+Quote Post
post Sep 20 2019, 04:39:03
Post #3

Правь статус, ####!111
**************
Group: Металариец
Posts: 35,961
Releases: 26798
From: Г.Харьков
On Forums: 12 years 2 weeks
Thanks: 581424 time(s)
Ukraine


FLAC (Tracks) 298 mb
Register


Go to the top of the page
  Insert nick Quick quote
+Quote Post
post Sep 20 2019, 19:23:50
Post #4

MDM-Thrash Metal
**************
Group: Металариец
Posts: 12,452
Releases: 1742
From: Одесса
On Forums: 16 years 9 months
Thanks: 40449 time(s)
Ukraine


ЦИТАТА(Samaritianin @ Sep 19 2019, 15:37:03) *
3. Vanity in Front

Риффачек а-ля Megadeth времен Youthanasia
Go to the top of the page
  Insert nick Quick quote
+Quote Post
post Sep 21 2019, 17:28:21
Post #5

Три Литра
***
Group: Завсегдатай
Posts: 215
Releases: 0
On Forums: 7 years 9 months
Thanks: 25 time(s)
Unknown


улётный кайф....вштырило


Thanks:
Go to the top of the page
  Insert nick Quick quote
+Quote Post
post Sep 24 2019, 18:02:25
Post #6

Добрейшей души Мегаманьяк
**************
Group: Металариец
Posts: 2,348
Releases: 0
From: Bashkortostan, Таптыҡ
On Forums: 16 years 3 months
Thanks: 1124 time(s)
Russian Federation


Нуда, ничотак. Нашёл у себя в закромах их альбом Alcoholic от 2011 года - т.е. я даже знаком с их творчеством.
Go to the top of the page
  Insert nick Quick quote
+Quote Post

Reply to this topicStart new topic
2 User(s) are reading this topic (2 Guests and 0 Anonymous Users)
0 Members:

 



- Lo-Fi Version Support form
Copyrights and abuse reports form
Time is now: 29th May 2024 - 09:33:43