Welcome Guest ( Log In | Register )

> Releases Upload / Добавление релизов

Добавить релиз тут / Click here to add release
Рекомендованные обменники / Recommended file shares

> Distaste - Deibel (2019), Grindcore
post Sep 19 2019, 14:55:51
Post #1

Serial Uploader
Group Icon
Group: V.I.P
Posts: 36,300
Releases: 34475
From: Lithuania
On Forums: 11 years 4 months
Thanks: 400987 time(s)
Lithuania


(IMG:https://metalarea.org/images/audiocovers/2019_Sep/acov_tid327637_thumb.jpg)

*Artist: Distaste
*Album: Deibel
*Year: 2019
*Genre: Grindcore
*Country: Austria (IMG:https://metalarea.org/forum/style_images/flags/Austria.png)
*Format: mp3@CBR320kbps
*Size: 74MB

Tracklist:
01. Positionsresistent
02. Judas
03. Staubgeboren
04. Versuskalibriert
05. Gesagt, getan
06. Deibel
07. Die spinnen, die Römer 13:1-7
08. Patriarchetyp
09. Mutter
10. Wermutstropfen
11. Parlamentarische Pleonexie
12. Bestätigungssubjektivität
13. Omnipotent
14. Der Rote Winter
15. Der Gerät
******************************
Total playing time: 32:11

(IMG:https://metalarea.org/images/myspace.png)



Technical info
(IMG:https://metalarea.org/images/spectrogram/2019_Sep/85dcb14ede28979fcb0971b893e688f3.png)
Input File: 02 Judas.mp3
Channels : 2
Sample Rate : 44100
Precision : 16-bit
Duration : 00:00:00.09 = 4145 samples = 7.04932 CDDA sectors
File Size : 4.28M
Bit Rate : 364M
Sample Encoding: MPEG audio (layer I, II or III)
Comments :
Title=Judas
Artist=Distaste
Album=Deibel
Tracknumber=2/15
Year=2019
Genre=Metal
Discnumber=1/1



Register


Go to the top of the page
  Insert nick Quick quote
+Quote Post
 
Start new topic
Replies (1 - 1)
post Sep 19 2019, 22:43:34
Post #2

Два Литра
**
Group: Завсегдатай
Posts: 173
Releases: 4
On Forums: 7 years 7 months
Thanks: 202 time(s)
Ukraine




Thanks:
Go to the top of the page
  Insert nick Quick quote
+Quote Post

Reply to this topicStart new topic
1 User(s) are reading this topic (1 Guests and 0 Anonymous Users)
0 Members:

 



- Lo-Fi Version Support form
Copyrights and abuse reports form
Time is now: 17th October 2019 - 18:56:34