Welcome Guest ( Log In | Register )

> 

Здесь релизы с живыми прямыми ссылками на lossless

> Distaste - Deibel (2019), Grindcore
post Sep 19 2019, 14:55:51
Post #1

Serial Uploader
Group Icon
Group: V.I.P
Posts: 37,124
Releases: 35308
From: Lithuania
On Forums: 11 years 11 months
Thanks: 419467 time(s)
Lithuania


(IMG:https://metalarea.org/images/audiocovers/2019_Sep/acov_tid327637_thumb.jpg)

*Artist: Distaste
*Album: Deibel
*Year: 2019
*Genre: Grindcore
*Country: Austria (IMG:https://metalarea.org/forum/style_images/flags/Austria.png)
*Format: mp3@CBR320kbps
*Size: 74MB

Tracklist:
01. Positionsresistent
02. Judas
03. Staubgeboren
04. Versuskalibriert
05. Gesagt, getan
06. Deibel
07. Die spinnen, die Römer 13:1-7
08. Patriarchetyp
09. Mutter
10. Wermutstropfen
11. Parlamentarische Pleonexie
12. Bestätigungssubjektivität
13. Omnipotent
14. Der Rote Winter
15. Der Gerät
******************************
Total playing time: 32:11

(IMG:https://metalarea.org/images/myspace.png)



Technical info
(IMG:https://metalarea.org/images/spectrogram/2019_Sep/85dcb14ede28979fcb0971b893e688f3.png)
Input File: 02 Judas.mp3
Channels : 2
Sample Rate : 44100
Precision : 16-bit
Duration : 00:00:00.09 = 4145 samples = 7.04932 CDDA sectors
File Size : 4.28M
Bit Rate : 364M
Sample Encoding: MPEG audio (layer I, II or III)
Comments :
Title=Judas
Artist=Distaste
Album=Deibel
Tracknumber=2/15
Year=2019
Genre=Metal
Discnumber=1/1



Register


Go to the top of the page
  Insert nick Quick quote
+Quote Post
 
Start new topic
Replies (1 - 4)
post Sep 19 2019, 22:43:34
Post #2

Два Литра
**
Group: Завсегдатай
Posts: 194
Releases: 5
On Forums: 8 years 3 months
Thanks: 294 time(s)
Ukraine




Thanks:
Go to the top of the page
  Insert nick Quick quote
+Quote Post
post Dec 29 2019, 17:35:43
Post #3

Литр
*
Group: Подсевший
Posts: 68
Releases: 0
From: Башкирия
On Forums: 11 years 4 months
Thanks: 4 time(s)
Russian Federation


Многоуважаемые! Обновите пожалуйста ссылки!
Go to the top of the page
  Insert nick Quick quote
+Quote Post
post Jan 2 2020, 14:17:07
Post #4

Мегаманьяк
***********
Group: Металариец
Posts: 1,821
Releases: 169
From: Omsk, Siberia
On Forums: 11 years 2 months
Thanks: 3656 time(s)
Russian Federation


ЦИТАТА(K-61082 @ Dec 29 2019, 19:35:43) *
Многоуважаемые! Обновите пожалуйста ссылки!

320 kbps:
Register

FLAC (tracks):
Register


Go to the top of the page
  Insert nick Quick quote
+Quote Post
post Jan 21 2020, 07:02:44
Post #5

Правь статус, ####!111
**************
Group: Металариец
Posts: 2,896
Releases: 0
From: MoscoW
On Forums: 13 years 6 months
Thanks: 2224 time(s)
Russian Federation


Go to the top of the page
  Insert nick Quick quote
+Quote Post

Reply to this topicStart new topic
1 User(s) are reading this topic (1 Guests and 0 Anonymous Users)
0 Members:

 



- Lo-Fi Version Support form
Copyrights and abuse reports form
Time is now: 4th June 2020 - 05:30:07