Welcome Guest ( Log In | Register )

> 

Здесь релизы с живыми прямыми ссылками на lossless

> Blut Aus Nord - Hallucinogen (2019), Atmospheric Black Metal
post Sep 19 2019, 18:19:15
Post #1

 
Group Icon
Group: S-moderation team
Posts: 2,194
Releases: 192
On Forums: 17 years 5 months
Thanks: 21584 time(s)
Unknown


(IMG:http://metalarea.org/images/audiocovers/2019_Sep/acov_tid327647_thumb.jpg)

*Artist: Blut Aus Nord
*Album: Hallucinogen
*Year: 2019
*Genre: Atmospheric Black Metal
*Country: France (IMG:http://metalarea.org/forum/style_images/flags/France.png)
*Format: mp3@CBR320kbps
*Size: 113MB

Tracklist:
1. Nomos Nebuleam 08:28
2. Nebeleste 06:19
3. Sybelius 06:27
4. Anthosmos 07:20
5. Mahagma 06:21
6. Haallucinählia 06:51
7. Cosma Procyiris 07:10
******************************
Total playing time: 48:56



Extended info
Debemur Morti Productions, October 11th.
Exclusively for metalarea.


Technical info
(IMG:http://metalarea.org/images/spectrogram/2019_Sep/0b5d1962423c5280b2ccee986aa8eb9c.png)
Input File: 02. Nebeleste.mp3
Channels : 2
Sample Rate : 44100
Precision : 16-bit
Duration : 00:06:19.19 = 16722323 samples = 28439.3 CDDA sectors
File Size : 15.2M
Bit Rate : 321k
Sample Encoding: MPEG audio (layer I, II or III)
Comments :
Title=Nebeleste
Artist=BLUT AUS NORD
Album=Hallucinogen
Tracknumber=2
Year=2019



Register


Register


Thanks:
(194) -=Hass=-, 1968_janeart, 6666666, 666days, 6black6magic6, A.L.Rapsod, acerbus, ahp, Alexis The Best, Ambercandle, andivi, AndreFrancis, Antichrist, Aphrax, Aresson, artscald, Atreides, autumnwood, BandR75, Baudolino, Beazth, berserkr, BERZERK, biroutios, bka, Black Arts, blacky66, bloodwind, Blаckheart, boby9052, Boozer, Branis, Cartman223, celestial_keeper, chipsgott, Constantinus I, Cultosaurus, Daale, dalek, Deiuos, Demonologist, dermarsoran, dimpa, Dirt_ORFEY, djin94, djsema4, Dmitry1977, doomTemplar, Doooomed, DowntownGsus, dromord, dsp, El_Chibo, Emhyr var Emreis, ENDSMOUTH, ent404, eternald, Evgen79, Evilded, Faust2016, Femto, Fess, ForzaMinardi1977, Fryz, FunZombie, fylopaloma, gena, GFW, grindfucker, Guns, hammer, hellbibber, helvetesrike, Henmik, Hipgnosis, infernallord, Infidel, infiltrator, Irimias, Johnix, judaz, kalmametallinen, Kalnasra, kauyumari, Kazoth, kimkayoung, kolar666, Krosis, KVRT, LazarShadow, LEGION69, lestllk, LiarOfAngmar, lucifix, Ludwig Hagen, Lux, M0ns1gn0r, Malzus, marilin, Melusinara, MEmethuselah, metala, MetalAreola, Metalass, metalfanatic666, metaljosue, milosdjor, mirotvorets, Mist13Signifier, MMMMM, Moonlover, Morgoth, nadin85, Nadja, NappyRob, Narasimha, nemx, Nerevar, Nhmrath, nikolay81, noctu, NOMIDIMON, nsmetalhead, Occultas, Old Vyaine, older68, Olethros, Ostinato, peppuzzo, pgarlinski, Phlebotomized, plfan93, Premature_Devotion, Radek, randumbum, recber, RedMoloch, respect, Reverend, Rikardo90, ripper33, Rosen, sacrut, Samogon, Sanctus, sandr666, satanist666, scorn33, Scorpi, senecazm, sethurius, Shadechaser, snorr, sonicavocado, spiritualdecay666, Spunkynut, squall8fr, Sternennacht, stub888, supremo, svartrest, system36, TDM, TeamatSE, the_cleanser, tim47, Tino, tOmV, trabantfan, Trelledorn, troll_swamp, umnaxtet, unas.slayer.of.gods, VALERY, varg-38ru, vasiljev_sergej, Velmi, Vidder242, wreak, wtk.412, xska, yuratroll, zdcaixao, Zenial, Zoloft, Абигор, Авел, Варяг, дивин, Луч, металлист, некрософ, Нигилист, партизан,
Go to the top of the page
  Insert nick Quick quote
+Quote Post
6 Pages V  « < 4 5 6  
Start new topic
Replies (150 - 151)
post Dec 10 2019, 06:44:39
Post #151

Десять Литров Тёплого Молока
**********
Group: Металариец
Posts: 1,226
Releases: 13
On Forums: 16 years 2 weeks
Thanks: 1572 time(s)
Russian Federation


Лучший альбом 2019 года для меня.


Thanks:
(1) Ainar,
Go to the top of the page
  Insert nick Quick quote
+Quote Post
post Dec 10 2019, 09:36:38
Post #152

Маньяк
**********
Group: Металариец
Posts: 1,337
Releases: 0
On Forums: 4 years 3 months
Thanks: 1052 time(s)
Russian Federation


Один из флагманов так называемого пост блэка выпустил новый релиз на котором по сути нет ничего нового. Добавив в мелодике и уйдя от экспериментов с индастриалом этот альбом родственен Memoria Vetusta III: Saturnian Poetry (самому блэковому в классическом понимании этого слова их альбому), но родственен он не музыкальной составляющей, а композиционной аккуратностью, здесь нет излишек как в плане эффектов, так и в плане техничности и навороченности, да и блэк метал здесь лишь элемент в аскетичной пост метал обёртке (под пост металом я не имею ввиду жанровую принадлежность, а скорее философию подобных альбомов)
Go to the top of the page
  Insert nick Quick quote
+Quote Post

6 Pages V  « < 4 5 6
Reply to this topicStart new topic
2 User(s) are reading this topic (2 Guests and 0 Anonymous Users)
0 Members:

 



- Lo-Fi Version Support form
Copyrights and abuse reports form
Time is now: 3rd March 2024 - 10:33:01