Welcome Guest ( Log In | Register )

> Hajduk - Кръв [ep] (2020), Black Metal
post Sep 20 2019, 09:49:48
Post #1

Правь статус, ####!111
**************
Group: Металариец
Posts: 2,278
Releases: 1830
From: Praha
On Forums: 7 years 2 months
Thanks: 48408 time(s)
Czech Republic


(IMG:http://metalarea.org/images/audiocovers/2019_Sep/acov_tid327670_thumb.png)

*Artist: Hajduk
*Album: Кръв [ep]
*Year: 2020
*Genre: Black Metal
*Country: Bulgaria (IMG:http://metalarea.org/forum/style_images/flags/Bulgaria.png)
*Format: mp3@CBR320kbps
*Size: 41MB

Tracklist:
1. Борба - дял I. 05:26
2. Борба - дял II. 04:55
3. Левски 04:34
4. Свършек 02:13
******************************
Total playing time: 17:08



Extended info
Свобода или смърт


Technical info
(IMG:http://metalarea.org/images/spectrogram/2019_Sep/2abd8f55e70b10c1c19c7663fe85c7f7.png)
Input File: 03. Левски.mp3
Channels : 2
Sample Rate : 44100
Precision : 16-bit
Duration : 00:04:34.25 = 12094337 samples = 20568.6 CDDA sectors
File Size : 11.1M
Bit Rate : 322k
Sample Encoding: MPEG audio (layer I, II or III)
Comments :
Title=Левски
Artist=Hajduk
Album=Кръв
Tracknumber=03/04
Year=2019
Genre=Black Metal



Register


Go to the top of the page
  Insert nick Quick quote
+Quote Post
 
Start new topic
Replies (1 - 3)
post Sep 22 2019, 22:31:28
Post #2

Пять Литров
*****
Group: Металариец
Posts: 431
Releases: 73
From: italy
On Forums: 12 years 11 months
Thanks: 1640 time(s)
Italy


impressive debut


Thanks:
Go to the top of the page
  Insert nick Quick quote
+Quote Post
post Sep 22 2019, 22:34:28
Post #3

Два Литра
**
Group: Завсегдатай
Posts: 181
Releases: 0
From: Isla de Margarita, Venezuela
On Forums: 2 years 5 months
Thanks: 19 time(s)
Venezuela


¿2020? (IMG:style_emoticons/default/m1801.gif)
Go to the top of the page
  Insert nick Quick quote
+Quote Post
post Oct 1 2019, 09:32:07
Post #4

Литр
*
Group: Подсевший
Posts: 98
Releases: 2
From: Petersburg
On Forums: 13 years 11 months
Thanks: 53 time(s)
Russian Federation


Весьма добротная работа, будет интересно послушать альбом. За ссылку спасибо автору, за ознакомление - каналу Black metal promotion на YouTube, через который я, собственно, и узнал о данном коллективе

https://m.youtube.com/watch?v=wD00HtTYdJY
Go to the top of the page
  Insert nick Quick quote
+Quote Post

Reply to this topicStart new topic
2 User(s) are reading this topic (2 Guests and 0 Anonymous Users)
0 Members:

 



- Lo-Fi Version Support form
Copyrights and abuse reports form
Time is now: 20th June 2021 - 23:42:32