Welcome Guest ( Log In | Register )

Объявления

* gmail.com упорно продолжает считать почту с нас "unsolicited" и отбивает в том числе и письма активации, поэтому просьба использовать альтернативные почтовые ящики.
------------
* gmail.com continues reject all mail from us as "unsolicited" (activation mails too) therefore please use alternate mail servers.
> Uprising - Uprising (2016), Black Metal
post Sep 21 2019, 17:50:39
Post #1

Правь статус, ####!111
**************
Group: Металариец
Posts: 2,749
Releases: 2261
From: Praha
On Forums: 10 years 1 month
Thanks: 63820 time(s)
Czech Republic


(IMG:http://metalarea.org/images/audiocovers/2019_Sep/acov_tid327774_thumb.jpg)

*Artist: Uprising
*Album: Uprising
*Year: 2016
*Genre: Black Metal
*Country: Germany (IMG:http://metalarea.org/forum/style_images/flags/Germany.png)
*Format: mp3@CBR320kbps
*Size: 93MB

Tracklist:
1. Introduction 01:55
2. Uprise 07:42
3. Thrones to Overthrow 05:52
4. Gather the dark Spirits 03:14
5. Ravens in dark Skies 05:56
6. Nihilistic Chants 06:34
7. Behold the Eternity of Stars 08:19
******************************
Total playing time: 39:32



Technical info
(IMG:http://metalarea.org/images/spectrogram/2019_Sep/f890f190d60ccb3aa16bc705329babd0.png)
Input File: 02. Uprise.mp3
Channels : 2
Sample Rate : 44100
Precision : 16-bit
Duration : 00:07:42.68 = 20404320 samples = 34701.2 CDDA sectors
File Size : 18.7M
Bit Rate : 323k
Sample Encoding: MPEG audio (layer I, II or III)
Comments :
Title=Uprise
Artist=Uprising
Album=Uprising
Tracknumber=02/07
Year=2016
Genre=Black Metal



Register


Go to the top of the page
  Insert nick Quick quote
+Quote Post
 
Start new topic
Replies (1 - 4)
post Sep 22 2019, 16:26:25
Post #2

Common dweller of hell
**************
Group: Металариец
Posts: 5,397
Releases: 12
From: Dnipro
On Forums: 15 years 10 months
Thanks: 2196 time(s)
Ukraine


Хорошо выдали немчуры.
Go to the top of the page
  Insert nick Quick quote
+Quote Post
post Sep 23 2019, 11:41:21
Post #3

Литр
*
Group: Подсевший
Posts: 74
Releases: 13
From: Якутия
On Forums: 16 years 2 weeks
Thanks: 266 time(s)
Russian Federation


Убийственный альбом (IMG:style_emoticons/default/pray.gif)
Go to the top of the page
  Insert nick Quick quote
+Quote Post
post Sep 27 2019, 15:06:16
Post #4

I hate you all
**************
Group: Металариец
Posts: 3,496
Releases: 128
From: Ukraine
On Forums: 17 years 3 weeks
Thanks: 8900 time(s)
Ukraine


Перезалейте плз на другие файлообменики !



Go to the top of the page
  Insert nick Quick quote
+Quote Post
post Sep 27 2019, 19:24:42
Post #5

Три Литра
***
Group: Завсегдатай
Posts: 215
Releases: 0
On Forums: 7 years 9 months
Thanks: 25 time(s)
Unknown


flac?


Thanks:
(1) isvili,
Go to the top of the page
  Insert nick Quick quote
+Quote Post

Reply to this topicStart new topic
2 User(s) are reading this topic (2 Guests and 0 Anonymous Users)
0 Members:

 



- Lo-Fi Version Support form
Copyrights and abuse reports form
Time is now: 29th May 2024 - 10:11:34