Welcome Guest ( Log In | Register )

> Releases Upload / Добавление релизов

Добавить релиз тут / Click here to add release
Рекомендованные обменники / Recommended file shares

 
Reply to this topicStart new topic
> Meatknife - Junky Town (2018), Brutal Death Metal
post Sep 21 2019, 19:25:54
Post #1

Правь статус, ####!111
**************
Group: Металариец
Posts: 19,006
Releases: 12826
From: Г.Харьков
On Forums: 7 years 5 months
Thanks: 219866 time(s)
Unknown


(IMG:http://metalarea.org/images/audiocovers/2019_Sep/acov_tid327781_thumb.jpg)

*Artist: Meatknife
*Album: Junky Town
*Year: 2018
*Genre: Brutal Death Metal
*Country: Germany (IMG:http://metalarea.org/forum/style_images/flags/Germany.png)
*Format: mp3@CBR320kbps
*Size: 93MB

Tracklist:
1. Horror Trip
2. Crackstreet Boys
3. Drug Ballad / Slam Bitches
4. Lucille
5. Sniff
6. Clap-Crack-Song
7. Sicko's Paradise
8. Grind-A-Billy
9. Dirty Sanchez
10. N.I.C.E
11. Mindrape
12. Tripper
13. ThePhillis
14. Cocaine Cupcake
15. Junky Town
16. Golden Shot
******************************
Total playing time: 37:43



Extended info
Krüger Drums (1995-2006, 2015-present)
See also: Truth of Blood, ex-To Kill
Matze Vocals (lead) (1995-2006, 2015-present)
See also: Duramater, ex-Morsgatt
Mario Staller Bass (2016-present)
See also: ex-Torchure
Kevin Guitars (2016-present)
Tob Guitars (2016-present)


Technical info
(IMG:http://metalarea.org/images/spectrogram/2019_Sep/fe498ae8a5c585051b1e047614373bd3.png)
Input File: 03 - Drug Ballad Slam Bitches.mp3
Channels : 2
Sample Rate : 44100
Precision : 16-bit
Duration : 00:02:41.08 = 7103760 samples = 12081.2 CDDA sectors
File Size : 6.90M
Bit Rate : 343k
Sample Encoding: MPEG audio (layer I, II or III)
Comments :
Title=Drug Ballad / Slam Bitches
Artist=Meatknife
Album=Junky Town
Tracknumber=3
Year=2018
Genre=Death Metal



Register


Go to the top of the page
  Insert nick Quick quote
+Quote Post

Reply to this topicStart new topic
1 User(s) are reading this topic (1 Guests and 0 Anonymous Users)
0 Members:

 



- Lo-Fi Version Support form
Copyrights and abuse reports form
Time is now: 15th October 2019 - 12:52:02