Welcome Guest ( Log In | Register )

Объявления

* gmail.com упорно продолжает считать почту с нас "unsolicited" и отбивает в том числе и письма активации, поэтому просьба использовать альтернативные почтовые ящики.
------------
* gmail.com continues reject all mail from us as "unsolicited" (activation mails too) therefore please use alternate mail servers.
> Warcode - Post-Modern Delusions (2019), Thrash/Death Metal
post Sep 23 2019, 10:00:33
Post #1

Правь статус, ####!111
**************
Group: Металариец
Posts: 36,182
Releases: 26977
From: Г.Харьков
On Forums: 12 years 1 month
Thanks: 586126 time(s)
Ukraine


(IMG:http://metalarea.org/images/audiocovers/2019_Sep/acov_tid327830_thumb.jpg)

*Artist: Warcode
*Album: Post-Modern Delusions
*Year: 2019
*Genre: Thrash/Death Metal
*Country: Greece (IMG:http://metalarea.org/forum/style_images/flags/Greece.png)
*Format: mp3@CBR320kbps
*Size: 88MB

Tracklist:
1. Instigate the Suffering 03:56
2. Introvert Reality 04:32
3. Ruination 04:30
4. This Civilized Decay 03:43
5. UnEvolved 04:15
6. Left Drained Out 03:42
7. Observe in Apathy 04:53
8. Face of Deliverance 03:17
9. Architects of Immoral Dogmas 05:10
******************************
Total playing time: 37:58




Extended info
Miltos Argiriou Guitars (lead) (2007-present)
See also: Advanced Logic Degree, ex-Ab-sense
Vasilis Karaoulis Guitars (rhythm) (2007-present)
Pete Vocals (2007-present), Bass (2014-present)
Sotiris Stavrekas Drums (2014-present)


Technical info
(IMG:http://metalarea.org/images/spectrogram/2019_Sep/9ab225b4c7862e3eab1f3c8659c92189.png)
Input File: 03 - Ruination.mp3
Channels : 2
Sample Rate : 44100
Precision : 16-bit
Duration : 00:04:30.25 = 11918069 samples = 20268.8 CDDA sectors
File Size : 11.0M
Bit Rate : 325k
Sample Encoding: MPEG audio (layer I, II or III)
Comments :
Title=Ruination
Artist=Warcode
Album=Post Modern Delusions
Tracknumber=3
Year=2019



Register


Go to the top of the page
  Insert nick Quick quote
+Quote Post
 
Start new topic
Replies (1 - 2)
post Sep 23 2019, 13:32:50
Post #2

Правь статус, ####!111
**************
Group: Металариец
Posts: 36,182
Releases: 26977
From: Г.Харьков
On Forums: 12 years 1 month
Thanks: 586126 time(s)
Ukraine


Cloud Mail 320
Register


Go to the top of the page
  Insert nick Quick quote
+Quote Post
post Sep 24 2019, 18:33:19
Post #3

Два Литра
**
Group: Завсегдатай
Posts: 127
Releases: 0
On Forums: 16 years 2 weeks
Thanks: 24 time(s)
Russian Federation


Солячки ништяковые есть! в остальном немного прямолинейно! вообщем фоном идёт зачётно! (IMG:style_emoticons/default/9.gif)


Thanks:
Go to the top of the page
  Insert nick Quick quote
+Quote Post

Reply to this topicStart new topic
2 User(s) are reading this topic (2 Guests and 0 Anonymous Users)
0 Members:

 



- Lo-Fi Version Support form
Copyrights and abuse reports form
Time is now: 18th June 2024 - 16:13:28