Welcome Guest ( Log In | Register )

Объявления

* gmail.com упорно продолжает считать почту с нас "unsolicited" и отбивает в том числе и письма активации, поэтому просьба использовать альтернативные почтовые ящики.
------------
* gmail.com continues reject all mail from us as "unsolicited" (activation mails too) therefore please use alternate mail servers.
> Paediatrician - Harlequin Fetus (2019), Brutal Death Metal/Goregrind
post Sep 23 2019, 14:55:51
Post #1

Serial Uploader
Group Icon
Group: V.I.P
Posts: 42,940
Releases: 41001
From: Lithuania
On Forums: 16 years 1 month
Thanks: 526893 time(s)
Lithuania


(IMG:https://metalarea.org/images/audiocovers/2019_Sep/acov_tid327855_thumb.jpg)

*Artist: Paediatrician
*Album: Harlequin Fetus
*Year: 2019
*Genre: Brutal Death Metal/Goregrind
*Country: Hungary (IMG:https://metalarea.org/forum/style_images/flags/Hungary.png)
*Format: mp3@CBR320kbps
*Size: 81MB

Tracklist:
01. Dentist With A Hammer 03:18
02. Mass Grave 02:17
03. Chemical Lobotomy 01:41
04. Red Room 02:31
05. Lethal Injection 02:08
06. Cyclopia 02:23
07. Harlequin Fetus 01:37
08. Acid Therapy 03:00
09. Clinic Of Torment 02:21
10. Anencephaly 02:14
11. Phantom Pain 02:11
12. Cotard Syndrome 02:17
13. Birth Control 02:03
14. 100% Medically Accurate 02:36
******************************
Total playing time: 32:37

(IMG:https://metalarea.org/images/myspace.png)




Technical info
(IMG:https://metalarea.org/images/spectrogram/2019_Sep/3cbfd006f4efba99fd079dd374910120.png)
Input File: 02. Mass Grave.mp3
Channels : 2
Sample Rate : 44100
Precision : 16-bit
Duration : 00:02:17.44 = 6061104 samples = 10308 CDDA sectors
File Size : 5.74M
Bit Rate : 334k
Sample Encoding: MPEG audio (layer I, II or III)
Comments :
Title=Mass Grave
Artist=Paediatrician
Album=Harlequin Fetus
Tracknumber=2
Year=2019
Genre=Death/Grind



Register


Go to the top of the page
  Insert nick Quick quote
+Quote Post
 
Start new topic
Replies (1 - 1)
post Sep 24 2019, 18:33:51
Post #2

Правь статус, ####!111
**************
Group: Металариец
Posts: 2,028
Releases: 311
On Forums: 15 years 8 months
Thanks: 8260 time(s)
Russian Federation


FLAC tracks
Register


Thanks:
Go to the top of the page
  Insert nick Quick quote
+Quote Post

Reply to this topicStart new topic
1 User(s) are reading this topic (1 Guests and 0 Anonymous Users)
0 Members:

 



- Lo-Fi Version Support form
Copyrights and abuse reports form
Time is now: 14th July 2024 - 14:07:48