Welcome Guest ( Log In | Register )

> Blod Besvimelse & Heroin Makes Happy - Tales From The Pitifulness/Last Silence Dream [split] (1999), Ambient/Black Metal | Ambient/Black Metal
post Sep 25 2019, 14:11:52
Post #1

Три Литра
***
Group: Завсегдатай
Posts: 202
Releases: 52
On Forums: 5 years 4 months
Thanks: 1242 time(s)
United States


(IMG:https://metalarea.org/images/audiocovers/2019_Sep/acov_tid327950_thumb.jpg)

*Artist: Blod Besvimelse & Heroin Makes Happy
*Album: Tales From The Pitifulness/Last Silence Dream [split]
*Year: 1999
*Genre: Ambient/Black Metal | Ambient/Black Metal
*Country: Germany (IMG:https://metalarea.org/forum/style_images/flags/Germany.png) | Germany (IMG:https://metalarea.org/forum/style_images/flags/Germany.png)
*Format: mp3@VBR227kbps
*Size: 42MB

Tracklist:
Blod Besvimelse:
1. Misanthrop
2. Necromantic (Cover version)
3. Forakte
4. Blod styrtning
5. Misebanke (Outro)
Heroin Makes Happy:
6. H Transfers Me to You
7. Too Much of Brown Death (The Golden Shot)
8. Ewiger Holokaust
9. Die heimliche Zerstörung
******************************
Total playing time: 25:20

(IMG:https://metalarea.org/images/youtube.png)

Technical info
(IMG:https://metalarea.org/images/spectrogram/2019_Sep/e9a7a96ec1cf6d83276201dbf0716419.png)
Input File: 07 - Heroin Makes Happy - Too Much Brown Death (The Golden Shot).mp3
Channels : 2
Sample Rate : 44100
Precision : 16-bit
Duration : 00:01:58.86 = 5241594 samples = 8914.28 CDDA sectors
File Size : 3.66M
Bit Rate : 246k
Sample Encoding: MPEG audio (layer I, II or III)
Comments :
Title=Too Much Brown Death (The Golden Shot)
Artist=Heroin Makes Happy
Album=Heroin Makes Happy & Blod Besvimelse Split CS
Tracknumber=7
Year=2000
Genre=Black Metal



Register


Go to the top of the page
  Insert nick Quick quote
+Quote Post
 
Start new topic
Replies (1 - 4)
post Sep 26 2019, 08:16:13
Post #2

De Mysteriis Dom Sathanas
**************
Group: Металариец
Posts: 4,346
Releases: 64
From: Doom
On Forums: 13 years 4 months
Thanks: 3741 time(s)
Russian Federation


Блэка здесь кот наплакал, а девушка могла бы и поухаживать за собой, прежде чем такое фото выкладывать (IMG:style_emoticons/default/25.gif) Хотя - это только видимость - все-таки черно-белое фото)
Ну а так R.I.P -грустно (IMG:style_emoticons/default/6.gif) Возраст кто знает и причину смерти?
Go to the top of the page
  Insert nick Quick quote
+Quote Post
post Sep 26 2019, 15:39:06
Post #3

Пять Литров
*****
Group: Металариец
Posts: 422
Releases: 0
On Forums: 12 years 6 months
Thanks: 117 time(s)
Russian Federation


ЦИТАТА(RUSP73 @ Sep 26 2019, 10:16:13) *
Блэка здесь кот наплакал, а девушка могла бы и поухаживать за собой, прежде чем такое фото выкладывать (IMG:style_emoticons/default/25.gif) Хотя - это только видимость - все-таки черно-белое фото)
Ну а так R.I.P -грустно (IMG:style_emoticons/default/6.gif) Возраст кто знает и причину смерти?


наркотики. начала колоться в пах... заражение, вонючая смерть. не успели спасти. Или 32 или 33 года...


Thanks:
(1) RUSP73,
Go to the top of the page
  Insert nick Quick quote
+Quote Post
post Sep 26 2019, 18:26:07
Post #4

Дети, блуждающие в Пустошах, возрадуйтесь! Атом даёт вам шанс на спасение!
********
Group: Металариец
Posts: 846
Releases: 147
From: Одеса
On Forums: 7 years 10 months
Thanks: 2264 time(s)
Ukraine


(IMG:style_emoticons/default/m0821.gif) Я не знаю как вы но я бы вдул :3 (IMG:style_emoticons/default/25.gif)
Go to the top of the page
  Insert nick Quick quote
+Quote Post
post Sep 27 2019, 09:04:22
Post #5

De Mysteriis Dom Sathanas
**************
Group: Металариец
Posts: 4,346
Releases: 64
From: Doom
On Forums: 13 years 4 months
Thanks: 3741 time(s)
Russian Federation


ЦИТАТА(YDV.SVARTVIND @ Sep 26 2019, 20:26:07) *
(IMG:style_emoticons/default/m0821.gif) Я не знаю как вы но я бы вдул :3 (IMG:style_emoticons/default/25.gif)

Некрофилия знаете ли, батюшка, такое дело..вы бы поосторожнее (IMG:style_emoticons/default/25.gif)
Go to the top of the page
  Insert nick Quick quote
+Quote Post

Reply to this topicStart new topic
2 User(s) are reading this topic (2 Guests and 0 Anonymous Users)
0 Members:

 



- Lo-Fi Version Support form
Copyrights and abuse reports form
Time is now: 5th December 2021 - 23:45:12