Welcome Guest ( Log In | Register )

> 

Здесь релизы с живыми прямыми ссылками на lossless

> Fvneral Fvkk - Carnal Confessions (2019), Epic Doom Metal
post Sep 26 2019, 12:32:10
Post #1

Serial Uploader
Group Icon
Group: V.I.P
Posts: 37,287
Releases: 35468
From: Lithuania
On Forums: 12 years 2 months
Thanks: 422709 time(s)
Lithuania


(IMG:http://metalarea.org/images/audiocovers/2019_Sep/acov_tid327991_thumb.jpg)

*Artist: Fvneral Fvkk
*Album: Carnal Confessions
*Year: 2019
*Genre: Epic Doom Metal
*Country: Germany (IMG:http://metalarea.org/forum/style_images/flags/Germany.png)
*Format: mp3@CBR320kbps
*Size: 111MB

Tracklist:
01. Omnia ad Dei Gloriam 00:36
02. Chapel of Abuse 06:25
03. A Shadow in the Dormitory 08:00
04. Alone with the Cross 07:09
05. The Hallowed Leech 04:56
06. Poor Sisters of Nazareth 07:20
07. To Those in the Grave 06:06
08. When God Is Not Watching 07:37
******************************
Total playing time: 48:09



(IMG:http://metalarea.org/images/youtube.png)

Technical info
(IMG:http://metalarea.org/images/spectrogram/2019_Sep/2b82a2db605fc154e7d74e7b4a483c96.png)
Input File: 02. Chapel of Abuse.mp3
Channels : 2
Sample Rate : 44100
Precision : 16-bit
Duration : 00:06:26.37 = 17039005 samples = 28977.9 CDDA sectors
File Size : 15.6M
Bit Rate : 323k
Sample Encoding: MPEG audio (layer I, II or III)
Comments :
Title=Chapel of Abuse
Artist=Fvneral Fvkk
Album=Carnal Confessions
Tracknumber=2
Year=2019-09-27
Genre=Metal
Discnumber=1



Register


Go to the top of the page
  Insert nick Quick quote
+Quote Post
 
Start new topic
Replies (1 - 6)
post Sep 27 2019, 14:47:15
Post #2

Правь статус, ####!111
**************
Group: Металариец
Posts: 22,669
Releases: 15760
From: Г.Харьков
On Forums: 8 years 3 months
Thanks: 290331 time(s)
Unknown


Cloud Mail 320
Register


Go to the top of the page
  Insert nick Quick quote
+Quote Post
post Oct 9 2019, 06:43:01    Сейчас играет: Ground Nero
Post #3

Group: Подсевший
Posts: 21
Releases: 0
On Forums: 13 years 2 months
Thanks: 15 time(s)
Russian Federation


Прекрасный релиз. А с учётом того, что дебютный, так и вовсе распрекрасный (IMG:style_emoticons/default/smile1.gif)
Go to the top of the page
  Insert nick Quick quote
+Quote Post
post Oct 9 2019, 07:42:02
Post #4

Group Icon
Group: S-moderation team
Posts: 16,063
Releases: 1440
From: Zagreb
On Forums: 9 years 5 months
Thanks: 72541 time(s)
Croatia


Register


Go to the top of the page
  Insert nick Quick quote
+Quote Post
post Oct 17 2019, 12:31:10
Post #5

Добрейшей души Мегаманьяк
***********
Group: Металариец
Posts: 1,650
Releases: 0
From: Bashkortostan, Өфө
On Forums: 12 years 6 months
Thanks: 742 time(s)
Russian Federation


Вот всё вроде бы хорошо, но вот если бы ещё чистый вокал перемежался бы с гроулом - я бы такое слушал, а так не... Жду NOVEMBERS DOOM свежий. А пока пошёл слушать THE 11TH HOUR.
Go to the top of the page
  Insert nick Quick quote
+Quote Post
post Oct 21 2019, 15:39:41
Post #6

Русский
*****
Group: Металариец
Posts: 418
Releases: 0
From: Москва
On Forums: 13 years 11 months
Thanks: 178 time(s)
Russian Federation


vinyl flac

Register
Go to the top of the page
  Insert nick Quick quote
+Quote Post
post May 1 2020, 17:57:59
Post #7

Override the Overture
******
Group: Металариец
Posts: 579
Releases: 0
From: Moscow
On Forums: 12 years 6 months
Thanks: 76 time(s)
Russian Federation


вот и подъехала подмога к Mirror of Deception, могут же немцы (IMG:style_emoticons/default/20.gif)
Go to the top of the page
  Insert nick Quick quote
+Quote Post

Reply to this topicStart new topic
1 User(s) are reading this topic (1 Guests and 0 Anonymous Users)
0 Members:

 



- Lo-Fi Version Support form
Copyrights and abuse reports form
Time is now: 11th August 2020 - 11:18:33