Welcome Guest ( Log In | Register )

> 

Здесь релизы с живыми прямыми ссылками на lossless

> Thrashtorno - Unearthed In The Disaster (2013), Thrash Metal
post Sep 30 2019, 16:46:49
Post #1

Правь статус, ####!111
**************
Group: Металариец
Posts: 19,079
Releases: 12876
From: Г.Харьков
On Forums: 7 years 5 months
Thanks: 221008 time(s)
Unknown


(IMG:http://metalarea.org/images/audiocovers/2019_Sep/acov_tid328190_thumb.jpg)

*Artist: Thrashtorno
*Album: Unearthed In The Disaster
*Year: 2013
*Genre: Thrash Metal
*Country: Peru (IMG:http://metalarea.org/forum/style_images/flags/Peru.png)
*Format: mp3@CBR320kbps
*Size: 62MB

Tracklist:
1. Hate More 2'07
2. Human Explosion 3'31
3. Toxic Avenger 4'27
4. Criminal Mosh 3'36
5. I Dont Care 4'03
6. Braindead 3'30
7. The Inka Return 2'27
8. Sound Of Destruction 3'37
******************************
Total playing time: 27:19



Extended info
CD-Rip+Scans
Joe "Pollo Endemoniado" Drums, Vocals
See also: Old Serpents
Jaime "Tío Vampiro" Guitars
See also: Old Serpents
Ivan Guitars (rhythm)
Elvis Vocals (backing), Bass



Technical info
(IMG:http://metalarea.org/images/spectrogram/2019_Sep/f3697850705be6288385ababc3641a70.png)
Input File: 02 - Human Explosion.mp3
Channels : 2
Sample Rate : 44100
Precision : 16-bit
Duration : 00:03:29.67 = 9246579 samples = 15725.5 CDDA sectors
File Size : 8.39M
Bit Rate : 320k
Sample Encoding: MPEG audio (layer I, II or III)
Comments :
Title=Human Explosion
Artist=Thrashtorno
Album=Unearthed In The Disaster
Tracknumber=2
Year=2013
Genre=Thrash Metal



Register


Go to the top of the page
  Insert nick Quick quote
+Quote Post
 
Start new topic
Replies (1 - 1)
post Oct 2 2019, 20:05:07
Post #2

Правь статус, ####!111
**************
Group: Металариец
Posts: 19,079
Releases: 12876
From: Г.Харьков
On Forums: 7 years 5 months
Thanks: 221008 time(s)
Unknown


FLAC CD (Image,cue,log,scans) 195 mb
Register


Thanks:
(1) Olethros,
Go to the top of the page
  Insert nick Quick quote
+Quote Post

Reply to this topicStart new topic
1 User(s) are reading this topic (1 Guests and 0 Anonymous Users)
0 Members:

 



- Lo-Fi Version Support form
Copyrights and abuse reports form
Time is now: 21st October 2019 - 00:57:03