Welcome Guest ( Log In | Register )

> Sintala Rána - Transylvanian Moonrise (2019), Symphonic Black/Folk Metal
post Sep 30 2019, 20:00:46
Post #1

Правь статус, ####!111
**************
Group: Металариец
Posts: 26,313
Releases: 18927
From: Г.Харьков
On Forums: 9 years 1 month
Thanks: 377424 time(s)
Unknown


(IMG:http://metalarea.org/images/audiocovers/2019_Sep/acov_tid328193_thumb.jpg)

*Artist: Sintala Rána
*Album: Transylvanian Moonrise
*Year: 2019
*Genre: Symphonic Black/Folk Metal
*Country: China (IMG:http://metalarea.org/forum/style_images/flags/China.png)
*Format: mp3@CBR320kbps
*Size: 101MB

Tracklist:
1. The Fall of Constantinople 02:25
2. Son of the Dragon 05:24
3. Lord of Wallachia 03:43
4. Vlad the Impaler 09:35
5. Among the Mist of Carpathians 03:09
6. Transylvanian Moonrise 08:00
7. Sintala Rána 06:25
8. Nosferatu 06:05
******************************
Total playing time: 44:46



Extended info
Yang Shihui Guitars, Vocals
Hadi Marvian Keyboards, Orchestrations


Technical info
(IMG:http://metalarea.org/images/spectrogram/2019_Sep/3e79ec42e2eb7c033e498e94dcc42d2a.png)
Input File: 04 - Vlad the Impaler.mp3
Channels : 2
Sample Rate : 44100
Precision : 16-bit
Duration : 00:09:35.18 = 25365482 samples = 43138.6 CDDA sectors
File Size : 23.0M
Bit Rate : 320k
Sample Encoding: MPEG audio (layer I, II or III)
Comments :
Title=Vlad the Impaler
Artist=Sintala Rána
Album=Transylvanian Moonrise
Tracknumber=4
Year=2019
Genre=Black Metal



Register


Go to the top of the page
  Insert nick Quick quote
+Quote Post
 
Start new topic
Replies (1 - 2)
post Oct 1 2019, 18:51:42
Post #2

Маньяк
**********
Group: Металариец
Posts: 1,295
Releases: 1
From: Беларусь
On Forums: 13 years 5 months
Thanks: 548 time(s)
Russian Federation


гуки угорели по трансильвании, например


Thanks:
Go to the top of the page
  Insert nick Quick quote
+Quote Post
post Oct 3 2019, 22:57:34
Post #3

Это просто место… где все подошло к концу.
**************
Group: Металариец
Posts: 6,299
Releases: 0
From: Страны Мамонтов
On Forums: 14 years 3 months
Thanks: 2478 time(s)
Antarctica


ЦИТАТА(Moonshtook @ Oct 1 2019, 20:51:42) *
гуки угорели по трансильвании, например

Транс-сильвания, она такая (IMG:style_emoticons/default/1488.gif)
Go to the top of the page
  Insert nick Quick quote
+Quote Post

Reply to this topicStart new topic
2 User(s) are reading this topic (2 Guests and 0 Anonymous Users)
0 Members:

 



- Lo-Fi Version Support form
Copyrights and abuse reports form
Time is now: 18th June 2021 - 03:18:09