Welcome Guest ( Log In | Register )

> 

Здесь релизы с живыми прямыми ссылками на lossless

> The Black Mysteries - Lemegeton (2018), Black Metal
post Oct 2 2019, 21:00:38
Post #1

𝕻𝕬𝕹𝕬𝕮𝕰𝕬
*******
Group: Металариец
Posts: 707
Releases: 400
On Forums: 7 years 4 months
Thanks: 6048 time(s)
Unknown


(IMG:http://metalarea.org/images/audiocovers/2019_Oct/acov_tid328271_thumb.jpg)

*Artist: The Black Mysteries
*Album: Lemegeton
*Year: 2018
*Genre: Black Metal
*Country: Netherlands (IMG:http://metalarea.org/forum/style_images/flags/Netherlands.png)
*Format: mp3@CBR320kbps
*Size: 81MB

Tracklist:
1. Lemegeton 05:48
2. Temple Lord Of The Necromanteion 05:34
3. Serpent Of The Black Sun 07:22
4. Beyond The Dark Gate 06:22
5. An Ancient Spiritdance 05:31
6. Night Of Burning Temples 06:41
******************************
Total playing time: 37:18




Technical info
(IMG:http://metalarea.org/images/spectrogram/2019_Oct/a9c5d3a13e9888697d27567d02da4431.png)
Input File: 04 - Beyond The Dark Gate.mp3
Channels : 2
Sample Rate : 44100
Precision : 16-bit
Duration : 00:06:22.01 = 16846729 samples = 28650.9 CDDA sectors
File Size : 15.3M
Bit Rate : 320k
Sample Encoding: MPEG audio (layer I, II or III)
Comments :
Title=Beyond The Dark Gate
Artist=The Black Mysteries
Album=Lemegeton
Tracknumber=4
Year=2018
Genre=Black Metal



Register


Go to the top of the page
  Insert nick Quick quote
+Quote Post
 
Start new topic
Replies (1 - 1)
post Oct 2 2019, 22:56:39
Post #2

𝕻𝕬𝕹𝕬𝕮𝕰𝕬
*******
Group: Металариец
Posts: 707
Releases: 400
On Forums: 7 years 4 months
Thanks: 6048 time(s)
Unknown


FLAC 255MB
Register


Go to the top of the page
  Insert nick Quick quote
+Quote Post

Reply to this topicStart new topic
1 User(s) are reading this topic (1 Guests and 0 Anonymous Users)
0 Members:

 



- Lo-Fi Version Support form
Copyrights and abuse reports form
Time is now: 19th October 2019 - 23:26:44