Welcome Guest ( Log In | Register )

 
Reply to this topicStart new topic
> Iron Kingdom - On The Hunt (2019), Heavy Metal
post Oct 3 2019, 12:42:44
Post #1

Serial Uploader
Group Icon
Group: V.I.P
Posts: 42,412
Releases: 40481
From: Lithuania
On Forums: 15 years 10 months
Thanks: 517372 time(s)
Lithuania


(IMG:http://metalarea.org/images/audiocovers/2019_Oct/acov_tid328304_thumb.jpg)

*Artist: Iron Kingdom
*Album: On The Hunt
*Year: 2019
*Genre: Heavy Metal
*Country: Canada (IMG:http://metalarea.org/forum/style_images/flags/Canada.png)
*Format: mp3@CBR320kbps
*Size: 92MB

Tracklist:
01. White Wolf 05:23
02. Driftin' Through Time 03:20
03. Sign of the Gods 04:43
04. Keep It Steel 03:04
05. Raze and Ruin 03:51
06. Road Warriors 04:41
07. Invaders 05:30
08. Paragon 04:33
09. The Dream 04:45
******************************
Total playing time: 39:50

(IMG:http://metalarea.org/images/myspace.png)



(IMG:http://metalarea.org/images/youtube.png)

Technical info
(IMG:http://metalarea.org/images/spectrogram/2019_Oct/3623e674b005c2de1edf5107b237e0f8.png)
Input File: 2 - Driftin\' Through Time.mp3
Channels : 2
Sample Rate : 44100
Precision : 16-bit
Duration : 00:03:20.14 = 8825954 samples = 15010.1 CDDA sectors
File Size : 8.09M
Bit Rate : 323k
Sample Encoding: MPEG audio (layer I, II or III)
Comments :
Title=Driftin' Through Time
Artist=Iron Kingdom
Album=On the Hunt
Tracknumber=2
Year=2019
Genre=Rock/Hard Rock/Metal
Discnumber=1



Register


Go to the top of the page
  Insert nick Quick quote
+Quote Post

Reply to this topicStart new topic
1 User(s) are reading this topic (1 Guests and 0 Anonymous Users)
0 Members:

 



- Lo-Fi Version Support form
Copyrights and abuse reports form
Time is now: 22nd April 2024 - 03:46:41