Welcome Guest ( Log In | Register )

Объявления

* gmail.com упорно продолжает считать почту с нас "unsolicited" и отбивает в том числе и письма активации, поэтому просьба использовать альтернативные почтовые ящики.
------------
* gmail.com continues reject all mail from us as "unsolicited" (activation mails too) therefore please use alternate mail servers.
 
Reply to this topicStart new topic
> Decrepit Cadaver - The Outer Darkness [ep] (2019), Death Metal
post Oct 3 2019, 14:11:02
Post #1

Serial Uploader
Group Icon
Group: V.I.P
Posts: 42,605
Releases: 40671
From: Lithuania
On Forums: 15 years 11 months
Thanks: 521363 time(s)
Lithuania


(IMG:http://metalarea.org/images/audiocovers/2019_Oct/acov_tid328314_thumb.jpg)

*Artist: Decrepit Cadaver
*Album: The Outer Darkness [ep]
*Year: 2019
*Genre: Death Metal
*Country: Chile (IMG:http://metalarea.org/forum/style_images/flags/Chile.png)
*Format: mp3@CBR320kbps
*Size: 12MB

Tracklist:
01. Obscure Ancient Terror 02:13
02. The Quantic Fracture 02:13
******************************
Total playing time: 4:26

(IMG:http://metalarea.org/images/myspace.png)




Technical info
(IMG:http://metalarea.org/images/spectrogram/2019_Oct/d8a8e73efa5085375c7083af68ce5682.png)
Input File: 02. The Quantic Fracture.mp3
Channels : 2
Sample Rate : 44100
Precision : 16-bit
Duration : 00:02:13.00 = 5865300 samples = 9975 CDDA sectors
File Size : 6.57M
Bit Rate : 395k
Sample Encoding: MPEG audio (layer I, II or III)
Comments :
Title=The Quantic Fracture
Artist=Decrepit Cadaver
Album=The Outer Darkness
Tracknumber=2
Year=2019
Genre=Death/Grind



Register


Go to the top of the page
  Insert nick Quick quote
+Quote Post

Reply to this topicStart new topic
1 User(s) are reading this topic (1 Guests and 0 Anonymous Users)
0 Members:

 



- Lo-Fi Version Support form
Copyrights and abuse reports form
Time is now: 28th May 2024 - 21:50:32