Welcome Guest ( Log In | Register )

Объявления

* gmail.com упорно продолжает считать почту с нас "unsolicited" и отбивает в том числе и письма активации, поэтому просьба использовать альтернативные почтовые ящики.
------------
* gmail.com continues reject all mail from us as "unsolicited" (activation mails too) therefore please use alternate mail servers.
> Svartby - Big Boss (2019), Folk Metal
post Oct 9 2019, 23:40:34
Post #1

Правь статус, ####!111
**************
Group: Металариец
Posts: 36,412
Releases: 27150
From: Г.Харьков
On Forums: 12 years 2 months
Thanks: 591288 time(s)
Ukraine


(IMG:http://metalarea.org/images/audiocovers/2019_Oct/acov_tid328560_thumb.jpg)

*Artist: Svartby
*Album: Big Boss
*Year: 2019
*Genre: Folk Metal
*Country: Russian Federation (IMG:http://metalarea.org/forum/style_images/flags/Russian%20Federation.png)
*Format: mp3@CBR320kbps
*Size: 51MB

Tracklist:
1. Magic Gumbo 01:18
2. Rails and Guns 03:41
3. Goblin Malt 03:50
4. Deadly Tango 04:46
5. Tommy Guns 03:17
6. Big Boss 03:48
7. Hangover 01:24
******************************
Total playing time: 22:04



Preview 3

Extended info
Gnofkes - vocals
Lindwurm - guitars
Humla - guitars
Fjällräv - bass
Giftsvamp - keyboards
Woopzy - drums


Technical info
(IMG:http://metalarea.org/images/spectrogram/2019_Oct/7ea4b7463e487024328045f56e01a225.png)
Input File: 04 - Deadly Tango.mp3
Channels : 2
Sample Rate : 44100
Precision : 16-bit
Duration : 00:04:47.02 = 12657714 samples = 21526.7 CDDA sectors
File Size : 11.6M
Bit Rate : 324k
Sample Encoding: MPEG audio (layer I, II or III)
Comments :
Title=Deadly Tango
Artist=Svartby
Album=Big Boss
Tracknumber=4
Year=2019-10-10
Genre=Metal
Discnumber=1



Register


Go to the top of the page
  Insert nick Quick quote
+Quote Post
 
Start new topic
Replies (1 - 5)
post Oct 10 2019, 10:54:41
Post #2

Мегадобряк
**************
Group: Металариец
Posts: 5,329
Releases: 1266
From: Харьков, Украина
On Forums: 17 years 9 months
Thanks: 10048 time(s)
Ukraine


Свартбю (IMG:style_emoticons/default/pray.gif) Когда они уже напишут шото уровня Riv Hug Oh Bit (IMG:style_emoticons/default/hmm.gif)


Thanks:
Go to the top of the page
  Insert nick Quick quote
+Quote Post
post Oct 10 2019, 12:49:45
Post #3

Шесть Литров
******
Group: Металариец
Posts: 591
Releases: 26
On Forums: 15 years 1 month
Thanks: 579 time(s)
Chile


Thanks (IMG:style_emoticons/default/dwarf-1.gif)


Thanks:
Go to the top of the page
  Insert nick Quick quote
+Quote Post
post Oct 14 2019, 16:58:20
Post #4

Group: Подсевший
Posts: 13
Releases: 0
On Forums: 4 years 9 months
Thanks: 2 time(s)
Unknown


Хороший Finntroll worship (IMG:style_emoticons/default/9.gif)
Go to the top of the page
  Insert nick Quick quote
+Quote Post
post Oct 22 2019, 21:19:46
Post #5

Necromancer
Group Icon
Group: Curation team
Posts: 11,046
Releases: 271
From: Зеленоград
On Forums: 17 years 9 months
Thanks: 8971 time(s)
Russian Federation


Вессёлые троолли опять в ударе! (IMG:style_emoticons/default/9.gif)
Go to the top of the page
  Insert nick Quick quote
+Quote Post
post Jan 26 2024, 12:19:33
Post #6

_ - = # Thrashogolic # = - _ ... а давайте поржём все вместе
**************
Group: Металариец
Posts: 22,800
Releases: 4444
From: 404
On Forums: 14 years 1 month
Thanks: 29396 time(s)
Ukraine


ЦИТАТА(Oskulum @ Oct 10 2019, 11:54:41) *
Свартбю (IMG:style_emoticons/default/pray.gif) Когда они уже напишут шото уровня Riv Hug Oh Bit (IMG:style_emoticons/default/hmm.gif)
Всё, кина не будет: распались.

metal-archives:
Status: Split-up
Years active: 2004-2022


Thanks:
(1) Veggr,
Go to the top of the page
  Insert nick Quick quote
+Quote Post

Reply to this topicStart new topic
2 User(s) are reading this topic (2 Guests and 0 Anonymous Users)
0 Members:

 



- Lo-Fi Version Support form
Copyrights and abuse reports form
Time is now: 15th July 2024 - 22:32:14