Welcome Guest ( Log In | Register )

> 

Здесь релизы с живыми прямыми ссылками на lossless

> Shadecrown - Riven (2019), Melodic Death/Doom Metal
post Oct 10 2019, 13:23:07
Post #1

Serial Uploader
Group Icon
Group: V.I.P
Posts: 37,124
Releases: 35308
From: Lithuania
On Forums: 11 years 11 months
Thanks: 419322 time(s)
Lithuania


(IMG:https://metalarea.org/images/audiocovers/2019_Oct/acov_tid328590_thumb.jpg)

*Artist: Shadecrown
*Album: Riven
*Year: 2019
*Genre: Melodic Death/Doom Metal
*Country: Finland (IMG:https://metalarea.org/forum/style_images/flags/Finland.png)
*Format: mp3@CBR320kbps
*Size: 103MB

Tracklist:
01. Not Until the End 05:50
02. Lifelong Dying 05:58
03. Rain's Edge 05:13
04. The Ghost I Mourn 04:08
05. Incomplete 06:37
06. Hate Reflected 04:27
07. Divided 07:24
08. Traces 05:18
******************************
Total playing time: 44:55



(IMG:https://metalarea.org/images/youtube.png)

Technical info
(IMG:https://metalarea.org/images/spectrogram/2019_Oct/8a7c6eda697571231d7bdc8a6aa17d37.png)
Input File: 6 - Hate Reflected.mp3
Channels : 2
Sample Rate : 44100
Precision : 16-bit
Duration : 00:04:27.09 = 11778669 samples = 20031.7 CDDA sectors
File Size : 10.7M
Bit Rate : 322k
Sample Encoding: MPEG audio (layer I, II or III)
Comments :
Title=Hate Reflected
Artist=Shadecrown
Album=Riven
Tracknumber=6
Year=2019
Genre=Metal
Discnumber=1



Register


Go to the top of the page
  Insert nick Quick quote
+Quote Post
 
Start new topic
Replies (1 - 7)
post Oct 10 2019, 14:51:21
Post #2

Правь статус, ####!111
**************
Group: Металариец
Posts: 21,887
Releases: 15090
From: Г.Харьков
On Forums: 8 years 2 weeks
Thanks: 273723 time(s)
Unknown


Cloud Mail 320
Register


Go to the top of the page
  Insert nick Quick quote
+Quote Post
post Oct 11 2019, 10:10:24
Post #3

Два Литра
**
Group: Завсегдатай
Posts: 129
Releases: 2
On Forums: 9 years 10 months
Thanks: 154 time(s)
Russian Federation


FLAC:
Register


Go to the top of the page
  Insert nick Quick quote
+Quote Post
post Nov 22 2019, 19:17:41
Post #4

Маньяк
**********
Group: Металариец
Posts: 1,029
Releases: 4
From: Харьков
On Forums: 11 years 9 months
Thanks: 367 time(s)
Ukraine




Thanks:
(1) KVRT,
Go to the top of the page
  Insert nick Quick quote
+Quote Post
post Jan 31 2020, 17:02:58
Post #5

Два Литра
**
Group: Завсегдатай
Posts: 104
Releases: 0
From: Moscow/Kiev
On Forums: 14 years 4 months
Thanks: 63 time(s)
Russian Federation


Охренительный альбом.
Go to the top of the page
  Insert nick Quick quote
+Quote Post
post Feb 4 2020, 09:17:09
Post #6

Group: Дух
Posts: 1
Releases: 0
On Forums: 11 months 2 weeks
Thanks: 0 time(s)
Unknown


Ссылку на FLAC не могу открыть почему-то(
Если не затруднит, перезалейте пожалуйста FLAC, нигде больше найти его не могу
Go to the top of the page
  Insert nick Quick quote
+Quote Post
post Feb 10 2020, 21:38:23
Post #7

Два Литра
**
Group: Завсегдатай
Posts: 104
Releases: 0
From: Moscow/Kiev
On Forums: 14 years 4 months
Thanks: 63 time(s)
Russian Federation


QUOTE(xSAINTx @ Feb 4 2020, 11:17:09) *
Ссылку на FLAC не могу открыть почему-то(
Если не затруднит, перезалейте пожалуйста FLAC, нигде больше найти его не могу


https://mega.nz/#!XuplAQZL!N_iPYts3...RWTkuqkAORMdOKE


Thanks:
Go to the top of the page
  Insert nick Quick quote
+Quote Post
post Mar 1 2020, 13:53:52
Post #8

Ёлд ХеллоВяйне
Group Icon
Group: V.I.P
Posts: 29,711
Releases: 137
From: Питер
On Forums: 13 years 7 months
Thanks: 17616 time(s)
Russian Federation


Весьма недурно. В первой песне неиллюзорно повеяло Sentenced.
Go to the top of the page
  Insert nick Quick quote
+Quote Post

Reply to this topicStart new topic
1 User(s) are reading this topic (1 Guests and 0 Anonymous Users)
0 Members:

 



- Lo-Fi Version Support form
Copyrights and abuse reports form
Time is now: 30th May 2020 - 11:51:10