Welcome Guest ( Log In | Register )

> Totengeflüster - The Faceless Divine (2019), Symphonic Black Metal
post Oct 10 2019, 13:42:37
Post #1

Serial Uploader
Group Icon
Group: V.I.P
Posts: 37,608
Releases: 35780
From: Lithuania
On Forums: 13 years 1 month
Thanks: 433167 time(s)
Lithuania


(IMG:https://metalarea.org/images/audiocovers/2019_Oct/acov_tid328594_thumb.jpg)

*Artist: Totengeflüster
*Album: The Faceless Divine
*Year: 2019
*Genre: Symphonic Black Metal
*Country: Germany (IMG:https://metalarea.org/forum/style_images/flags/Germany.png)
*Format: mp3@CBR320kbps
*Size: 136MB

Tracklist:
01. The Arrival of the Withered
02. On Carrion Wings
03. The Holloe Wanderer (Cursed)
04. The Hunt
05. Affliction
06. Extinct Paradise
07. Grans Us Thy Blessing
08. Vermin
09. Reise eines verlorenen Geistes
10. Requiem
11. Entflamme mich (Bonus Track)
12. The Hollow Wanderer (Satin version) (Bonus Track)
******************************
Total playing time: 59:12

(IMG:https://metalarea.org/images/myspace.png)


(IMG:https://metalarea.org/images/youtube.png)

Technical info
(IMG:https://metalarea.org/images/spectrogram/2019_Oct/491e2956d1bd964161fccbef401a04d5.png)
Input File: 02 - On Carrion Wings.mp3
Channels : 2
Sample Rate : 44100
Precision : 16-bit
Duration : 00:04:38.56 = 12284452 samples = 20891.9 CDDA sectors
File Size : 11.2M
Bit Rate : 323k
Sample Encoding: MPEG audio (layer I, II or III)
Comments :
Title=On Carrion Wings
Artist=Totengeflüster
Album=The Faceless Divine
Tracknumber=2
Year=2019
Genre=Alternative/Rock
Discnumber=1



Register


Go to the top of the page
  Insert nick Quick quote
+Quote Post
 
Start new topic
Replies (1 - 5)
post Oct 12 2019, 13:06:39
Post #2

Ёлд ХеллоВяйне
Group Icon
Group: V.I.P
Posts: 31,828
Releases: 144
From: Питер
On Forums: 14 years 8 months
Thanks: 19904 time(s)
Russian Federation


Хорошая аллюзия на ДБ-97, только те уже тогда записывались лучше.
Go to the top of the page
  Insert nick Quick quote
+Quote Post
post Oct 16 2019, 21:54:41
Post #3

Пять Литров
*****
Group: Металариец
Posts: 423
Releases: 0
From: Украина
On Forums: 13 years 2 weeks
Thanks: 17 time(s)
Ukraine


Напоролся в ютубе. Понравилось, в принципе ничего особенного. Видимо давно такого не слушал.
Go to the top of the page
  Insert nick Quick quote
+Quote Post
post Mar 14 2020, 15:41:36
Post #4

Group: Подсевший
Posts: 45
Releases: 0
On Forums: 11 years 7 months
Thanks: 83 time(s)
Russian Federation


Добавил cd-rip Totengefluster RAR 320
Totengefluster RAR 320


Thanks:
Go to the top of the page
  Insert nick Quick quote
+Quote Post
post Mar 14 2020, 17:00:03
Post #5

Мегаманьяк
***********
Group: Металариец
Posts: 1,952
Releases: 0
On Forums: 12 years 4 months
Thanks: 815 time(s)
Antarctica


Отличный атмосферик блэк, достойный быть в коллекции.
Go to the top of the page
  Insert nick Quick quote
+Quote Post
post Jul 21 2021, 20:50:01
Post #6

Group: Подсевший
Posts: 29
Releases: 0
On Forums: 2 years 1 month
Thanks: 0 time(s)
Russian Federation


а можно этот альбом в lossles выложить пожалуйста?
Go to the top of the page
  Insert nick Quick quote
+Quote Post

Reply to this topicStart new topic
2 User(s) are reading this topic (2 Guests and 0 Anonymous Users)
0 Members:

 



- Lo-Fi Version Support form
Copyrights and abuse reports form
Time is now: 25th July 2021 - 23:32:28