Welcome Guest ( Log In | Register )

> 

Здесь релизы с живыми прямыми ссылками на lossless

> Crepuscle - Heavenly Skies (2019), Symphonic/Melodic Death Metal
post Oct 10 2019, 13:51:12
Post #1

Serial Uploader
Group Icon
Group: V.I.P
Posts: 36,306
Releases: 34500
From: Lithuania
On Forums: 11 years 4 months
Thanks: 401573 time(s)
Lithuania


(IMG:https://metalarea.org/images/audiocovers/2019_Oct/acov_tid328595_thumb.jpg)

*Artist: Crepuscle
*Album: Heavenly Skies
*Year: 2019
*Genre: Symphonic/Melodic Death Metal
*Country: United States (IMG:https://metalarea.org/forum/style_images/flags/United%20States.png)
*Format: mp3@CBR320kbps
*Size: 102MB

Tracklist:
01. Aurora 00:56
02. Heavenly Skies 03:58
03. Faultline 04:06
04. Severed 04:03
05. Etheral Waters 05:01
06. In the Winds of Glory 03:54
07. Lunar Lullaby 01:11
08. Elapsing Eternity 03:23
09. Resignation 04:46
10. Road to Peril 03:39
11. Limitless 07:51
******************************
Total playing time: 42:48




(IMG:https://metalarea.org/images/youtube.png)

Technical info
(IMG:https://metalarea.org/images/spectrogram/2019_Oct/578b3dc53bfa0caf9e949330f6cfad55.png)
Input File: 2 - Heavenly Skies.mp3
Channels : 2
Sample Rate : 44100
Precision : 16-bit
Duration : 00:03:58.07 = 10498755 samples = 17855 CDDA sectors
File Size : 9.56M
Bit Rate : 321k
Sample Encoding: MPEG audio (layer I, II or III)
Comments :
Title=Heavenly Skies
Artist=Crepuscle
Album=Heavenly Skies
Tracknumber=2
Year=2019
Genre=Alternative/Indie Rock/Metal
Discnumber=1



Register


Go to the top of the page
  Insert nick Quick quote
+Quote Post
 
Start new topic
Replies (1 - 3)
post Oct 10 2019, 14:52:29
Post #2

Правь статус, ####!111
**************
Group: Металариец
Posts: 19,079
Releases: 12876
From: Г.Харьков
On Forums: 7 years 5 months
Thanks: 221010 time(s)
Unknown


Cloud Mail 320
Register


Go to the top of the page
  Insert nick Quick quote
+Quote Post
post Oct 10 2019, 17:56:15
Post #3

Литр
*
Group: Подсевший
Posts: 57
Releases: 0
From: Kazakhstan
On Forums: 10 years 8 months
Thanks: 15 time(s)
Kazakhstan


Похоже на Kalmah и Suotana!
В общем, альбом для любителей финской школы мелодэза.
Go to the top of the page
  Insert nick Quick quote
+Quote Post
post Oct 11 2019, 10:07:03
Post #4

Два Литра
**
Group: Завсегдатай
Posts: 104
Releases: 2
On Forums: 9 years 3 months
Thanks: 116 time(s)
Russian Federation


FLAC:
Register


Thanks:
Go to the top of the page
  Insert nick Quick quote
+Quote Post

Reply to this topicStart new topic
1 User(s) are reading this topic (1 Guests and 0 Anonymous Users)
0 Members:

 



- Lo-Fi Version Support form
Copyrights and abuse reports form
Time is now: 21st October 2019 - 01:20:18