Welcome Guest ( Log In | Register )

> Antroforce - Antroforce (2019), Old School Thrash Metal
post Oct 12 2019, 15:20:36
Post #1

Правь статус, ####!111
**************
Group: Металариец
Posts: 26,658
Releases: 19228
From: Г.Харьков
On Forums: 9 years 2 months
Thanks: 384076 time(s)
Unknown


(IMG:http://metalarea.org/images/audiocovers/2019_Oct/acov_tid328738_thumb.jpg)

*Artist: Antroforce
*Album: Antroforce
*Year: 2019
*Genre: Old School Thrash Metal
*Country: Brazil (IMG:http://metalarea.org/forum/style_images/flags/Brazil.png)
*Format: mp3@CBR320kbps
*Size: 96MB

Tracklist:
1. Antroforce 03:28
2. Space Thrash 03:39
3. Enterro Maldito 04:54
4. Caos Infernal 04:15
5. Cosmos 03:53
6. Verdades Ocultas 06:26
7. Sentença de Morte 04:09
8. Caçada Profana 03:53
9. Nação Underground 02:26
10. Honre o Metal Nacional 04:16
******************************
Total playing time: 41:19



Extended info
Laerte Dutra Guitars,Vocals
Ephrain Ferreira Bass, Vocals (backing)
Ivan Silva Drums, Vocals (backing)



Technical info
(IMG:http://metalarea.org/images/spectrogram/2019_Oct/5002228271ecb9044a989b5ca0845a82.png)
Input File: 03 - Enterro Maldito.mp3
Channels : 2
Sample Rate : 44100
Precision : 16-bit
Duration : 00:04:55.44 = 13028684 samples = 22157.6 CDDA sectors
File Size : 12.0M
Bit Rate : 324k
Sample Encoding: MPEG audio (layer I, II or III)
Comments :
Title=Enterro Maldito
Artist=Antroforce
Album=Antroforce
Tracknumber=3
Year=2019



Register


Go to the top of the page
  Insert nick Quick quote
+Quote Post
 
Start new topic
Replies (1 - 2)
post Oct 13 2019, 19:42:57
Post #2

Правь статус, ####!111
**************
Group: Металариец
Posts: 26,658
Releases: 19228
From: Г.Харьков
On Forums: 9 years 2 months
Thanks: 384076 time(s)
Unknown


Cloud Mail 320
Register


Thanks:
Go to the top of the page
  Insert nick Quick quote
+Quote Post
post Oct 14 2019, 20:40:13
Post #3

Четыре Литра
****
Group: Металариец
Posts: 376
Releases: 0
From: Kyiv
On Forums: 9 years 3 months
Thanks: 154 time(s)
Ukraine


Чадят!


Thanks:
Go to the top of the page
  Insert nick Quick quote
+Quote Post

Reply to this topicStart new topic
2 User(s) are reading this topic (2 Guests and 0 Anonymous Users)
0 Members:

 



- Lo-Fi Version Support form
Copyrights and abuse reports form
Time is now: 25th July 2021 - 03:33:17