Welcome Guest ( Log In | Register )

> И неформату есть предел.

Рэп/хип-хоп/шансон/поп удаляются. Для них есть свои порталы.

> Kadavar - For The Dead Travel Fast (2019), Psychedelic/Stoner/Hard Rock (D7)
post Oct 14 2019, 19:51:15
Post #1

Правь статус, ####!111
**************
Group: Металариец
Posts: 45,795
Releases: 705
On Forums: 10 years 10 months
Thanks: 37872 time(s)
Russian Federation


(IMG:http://metalarea.org/images/audiocovers/2019_Oct/acov_tid328803_thumb.jpg)

*Artist: Kadavar
*Album: For The Dead Travel Fast
*Year: 2019
*Genre: Psychedelic/Stoner/Hard Rock
*Country: Germany (IMG:http://metalarea.org/forum/style_images/flags/Germany.png)
*Format: mp3@CBR320kbps
*Size: 107MB

Tracklist:
1. The End 02:18
2. The Devil's Master 05:07
3. Evil Forces 04:43
4. Children Of The Night 05:59
5. Dancing With The Dead 05:09
6. Poison 05:25
7. Demons In My Mind 04:44
8. Saturnales 04:04
9. Long Forgotten Song 07:49
******************************
Total playing time: 45:18

(IMG:http://metalarea.org/images/youtube.png)
(IMG:http://metalarea.org/images/youtube.png)

Technical info
(IMG:http://metalarea.org/images/spectrogram/2019_Oct/86ab6e3933a1540831056a7bbc423b1d.png)
Input File: 01. The End.mp3
Channels : 2
Sample Rate : 44100
Precision : 16-bit
Duration : 00:02:18.77 = 6119889 samples = 10408 CDDA sectors
File Size : 6.02M
Bit Rate : 347k
Sample Encoding: MPEG audio (layer I, II or III)
Comments :
Title=The End
Artist=Kadavar
Album=For the Dead Travel Fast
Tracknumber=1/9
Year=2019
Genre=Classical
Discnumber=1/1



Register


Go to the top of the page
  Insert nick Quick quote
+Quote Post
 
Start new topic
Replies (1 - 5)
post Oct 15 2019, 14:12:13
Post #2

Правь статус, ####!111
**************
Group: Металариец
Posts: 45,795
Releases: 705
On Forums: 10 years 10 months
Thanks: 37872 time(s)
Russian Federation


Приятственно зело.
Go to the top of the page
  Insert nick Quick quote
+Quote Post
post Oct 16 2019, 07:55:55
Post #3

Правь статус, ####!111
**************
Group: Металариец
Posts: 45,795
Releases: 705
On Forums: 10 years 10 months
Thanks: 37872 time(s)
Russian Federation


Кручинин, не педаль
Быро, быро сию нямку качай

(IMG:style_emoticons/default/25.gif)
Go to the top of the page
  Insert nick Quick quote
+Quote Post
post Oct 18 2019, 16:01:41
Post #4

Семь Литров
*******
Group: Металариец
Posts: 772
Releases: 0
On Forums: 12 years 5 months
Thanks: 328 time(s)
Belarus


почему неформат?
альбом один из лучших за 2019
Go to the top of the page
  Insert nick Quick quote
+Quote Post
post Oct 21 2019, 20:03:07
Post #5

metalareanaut
******
Group: Металариец
Posts: 529
Releases: 3
From: Moscou profanе
On Forums: 12 years 3 weeks
Thanks: 469 time(s)
Russian Federation


Не понимаю причины такого ажиотажа вокруг данного трио - типичные представители волны ревайвала. Ну и прикид соответствующий - а-ля члены клуба исторической реконструкции.


Thanks:
(2) Ghostb, tormoz,
Go to the top of the page
  Insert nick Quick quote
+Quote Post
post Feb 5 2020, 16:00:28
Post #6

Правь статус, ####!111
**************
Group: Металариец
Posts: 3,250
Releases: 1
From: Рейх
On Forums: 13 years 7 months
Thanks: 894 time(s)
Ukraine


Шикарный альбом. Вообще все последние 3 работы нравятся больше всего
Go to the top of the page
  Insert nick Quick quote
+Quote Post

Reply to this topicStart new topic
1 User(s) are reading this topic (1 Guests and 0 Anonymous Users)
0 Members:

 



- Lo-Fi Version Support form
Copyrights and abuse reports form
Time is now: 10th April 2020 - 05:57:32