Welcome Guest ( Log In | Register )

> Releases Upload / Добавление релизов

Добавить релиз тут / Click here to add release
Рекомендованные обменники / Recommended file shares

> Persecutor - Rebirth (2019), Thrash Metal
post Oct 17 2019, 06:41:53
Post #1

MDM-Thrash Metal
**************
Group: Металариец
Posts: 9,078
Releases: 743
From: Одесса
On Forums: 12 years 3 months
Thanks: 19837 time(s)
Ukraine


(IMG:http://metalarea.org/images/audiocovers/2019_Oct/acov_tid328885_thumb.jpg)

*Artist: Persecutor
*Album: Rebirth
*Year: 2019
*Genre: Thrash Metal
*Country: Denmark (IMG:http://metalarea.org/forum/style_images/flags/Denmark.png)
*Format: mp3@CBR320kbps
*Size: 84MB

Tracklist:
01. Rebirth
02. Burn
03. Old School Thrash Metal
04. King of the World
05. Schemes
06. 4 More Beers
07. Worthless
08. A King Is Born
09. World at War
******************************
Total playing time: 31:44


(IMG:http://metalarea.org/images/youtube.png)
(IMG:http://metalarea.org/images/youtube.png)


Technical info
(IMG:http://metalarea.org/images/spectrogram/2019_Oct/b62f7a819279390280391d692b69511f.png)
Input File: 02. Burn.mp3
Channels : 2
Sample Rate : 44100
Precision : 16-bit
Duration : 00:03:14.42 = 8573790 samples = 14581.3 CDDA sectors
File Size : 8.74M
Bit Rate : 359k
Sample Encoding: MPEG audio (layer I, II or III)
Comments :
Title=Burn
Artist=Persecutor
Album=Rebirth
Tracknumber=2/9
Year=2019



Register


Go to the top of the page
  Insert nick Quick quote
+Quote Post
 
Start new topic
Replies (1 - 5)
post Oct 18 2019, 09:57:07
Post #2

hearer & reader
**************
Group: Металариец
Posts: 8,201
Releases: 110
From: Moscow
On Forums: 12 years 2 months
Thanks: 7718 time(s)
Russian Federation



А недурно! Далеко ушли от доморощенной ипихи 13-го года.


Thanks:
Go to the top of the page
  Insert nick Quick quote
+Quote Post
post Oct 18 2019, 13:56:49
Post #3

MDM-Thrash Metal
**************
Group: Металариец
Posts: 9,078
Releases: 743
From: Одесса
On Forums: 12 years 3 months
Thanks: 19837 time(s)
Ukraine


Cloud Mail 320:
Register


ЦИТАТА(AHBAnep @ Oct 18 2019, 11:57:07) *
А недурно!

Я бы даже сказал больше, что очень добротный треш (IMG:style_emoticons/default/metaler.gif)
Как по мне - так данный альбом в ТОР года однозначно!


Thanks:
Go to the top of the page
  Insert nick Quick quote
+Quote Post
post Oct 18 2019, 18:10:26
Post #4

Три Литра
***
Group: Завсегдатай
Posts: 274
Releases: 0
From: Kyiv
On Forums: 7 years 7 months
Thanks: 106 time(s)
Ukraine


Добротная трясучка! Вподобайка, спасибо 8)


Thanks:
Go to the top of the page
  Insert nick Quick quote
+Quote Post
post Oct 18 2019, 19:41:25
Post #5

Правь статус, ####!111
**************
Group: Металариец
Posts: 19,554
Releases: 13235
From: Г.Харьков
On Forums: 7 years 6 months
Thanks: 228277 time(s)
Unknown


FLAC (Tracks) 250 mb
Register


Go to the top of the page
  Insert nick Quick quote
+Quote Post
post Oct 20 2019, 19:22:52
Post #6

Три Литра
***
Group: Завсегдатай
Posts: 292
Releases: 0
From: Липецк
On Forums: 10 years 4 months
Thanks: 32 time(s)
Russian Federation


Вкуснятина.
Go to the top of the page
  Insert nick Quick quote
+Quote Post

Reply to this topicStart new topic
2 User(s) are reading this topic (2 Guests and 0 Anonymous Users)
0 Members:

 



- Lo-Fi Version Support form
Copyrights and abuse reports form
Time is now: 20th November 2019 - 23:08:08